Доктор Стрэндж

Лицензия

Добыча

Дубляж

Уэнсдэй

1 сезон

Тор

Дубляж

В эфире

Дубляж

Там, где раки поют

MVO

Властелин колец

1 сезон

Deluxe

pack

Рекомендуем

30

Пиратка

ВАЖНО

ВАЖНО

Ghostwire

Пиратка

jed

RePack

nioh2

RePack

RDR2

RePack

NEED FOR SPEED™ PAYBACK

RePack

скачать торрент

Кинопоиск HD

Острые козырьки 6 сезон

6 сезон

FAR CRY 6

RePack

скачать торрент

Лицензия

скачать торрент

MVO

1

1 сезон

скачать торрент

1 сезон

скачать торрент

Лицензия

  

Русалка и дочь короля / Дочь короля / The King's Daughter (Шон МакНамара) [2022, Фэнтези, приключения, мелодрама, WEB-DL 1080p] [Локализованная версия] Дубляж [СиПиАй Филмз / CPI Films]

Русалка и дочь короля через торрент pb.wtf

Раздают: 3 [ 0 KB/s ]
Размер: 3.7 GB | Добавлен: 2 мес. 25 д. назад | Торрент скачан:106 раз
Смотреть онлайн | Скачать   

08-09-2022 19:07 Русалка и дочь короля Скачать торрент  

Русалка и дочь короля / Дочь короля
The King's Daughter

Год выпуска: 2022
Страна: Австралия
Выпущено: Bliss Media, Brookwell-McNamara Entertainment, Kylin Pictures, Lightstream Pictures
Жанр: Фэнтези, приключения, мелодрама
Продолжительность: 01:36:30
Перевод: Дублированный | СиПиАй Филмз / CPI Films
Субтитры: Русские (Full)

Режиссер: Шон МакНамара

rating

В ролях: Пирс Броснан, Уильям Хёрт, Бенджамин Уокер, Кая Скоделарио, Фань Бинбин, Бен Ллойд-Хьюз, Пол Айрлэнд, Пабло Шрайбер, Кристал Кларк, Рэйчел Гриффитс, Вирджиния Бауэрс, Джули Эндрюс, Касия Качмарек, Кристиан Беддоу, Том Мортон

Описание: История рассказывает о «Короле-солнце» Людовике XIV, который решил, что должен жить вечно. Некий колдун рассказал королю, что для получения эликсира вечной жизни нужно добыть настоящую русалку. Король отправляет на поиски сирены толпу авантюристов. Но на пути безумных планов встают двое — страж русалки и 18-летняя дочь Людовика, весьма непокорная принцесса.

Качество: WEB-DL 1080p | Локализованная версия
Формат: MKV

Видео: MPEG-4 AVC, 1920x804, 5107 Kbit/s, 24.000 fps
Аудио: 48 kHz, AC3, 5.1, 384 Kbps | Дублированный | СиПиАй Филмз / CPI Films | RUS |
скриншот  скриншот  скриншот  скриншот  скриншот  скриншот  

General
Unique ID: 327577390057249717830708798388346598888 (0xF6711C47353DE624975CE892F81CB5E8)
Complete name: F:VideoThe.King.s.Daughter.2021.WEB-DL.1080p.seleZen.mkv
Format: Matroska
Format version: Version 4
File size: 3.70 GiB
Duration: 1 h 36 min
Overall bit rate: 5 492 kb/s
Movie name: The King's Daughter 2021 from seleZen
Encoded date: UTC 2022-09-07 22:07:18
Writing application: mkvmerge v59.0.0 ('Shining Star') 64-bit
Writing library: libebml v1.4.2 + libmatroska v1.6.4

Video
ID: 1
Format: AVC
Format/Info: Advanced Video Codec
Format profile: [email protected]
Format settings: CABAC / 4 Ref Frames
Format settings, CABAC: Yes
Format settings, Reference: 4 frames
Codec ID: V_MPEG4/ISO/AVC
Duration: 1 h 36 min
Bit rate: 5 107 kb/s
Width: 1 920 pixels
Height: 804 pixels
Display aspect ratio: 2.40:1
Frame rate mode: Constant
Frame rate: 24.000 FPS
Color space: YUV
Chroma subsampling: 4:2:0
Bit depth: 8 bits
Scan type: Progressive
Bits/(Pixel*Frame): 0.138
Stream size: 3.44 GiB (93%)
Language: English
Default: Yes
Forced: No

Audio
ID: 2
Format: AC-3
Format/Info: Audio Coding 3
Commercial name: Dolby Digital
Codec ID: A_AC3
Duration: 1 h 36 min
Bit rate mode: Constant
Bit rate: 384 kb/s
Channel(s): 6 channels
Channel layout: L R C LFE Ls Rs
Sampling rate: 48.0 kHz
Frame rate: 31.250 FPS (1536 SPF)
Compression mode: Lossy
Stream size: 265 MiB (7%)
Language: Russian
Service kind: Complete Main
Default: Yes
Forced: Yes




Скачать Русалка и дочь короля через торрент https://i1-imageban-ru.translate.goog/out/2022/04/13/f59b966e2a6e7908a5e24a425d029f0e.png Скачать, смотреть онлайн Русалка и дочь короля бесплантно в хорошем качестве Описание: История рассказывает о «Короле-солнце» Людовике XIV, который решил, что должен жить вечно. Некий колдун рассказал королю, что для ... 10 10 6
Торрент: Зарегистрирован [2022-09-08 19:07] · скачан: 106 раз
Статус: √ проверено
Размер: 3.7 GB
Как cкачать? Как скачать Русалка и дочь короля через торрент | UTorrent

% Раздел Тема Автор DL S | L
Фильмы 2022 [DVDrip, WEB-DLRip, HDrip] (DUB, MVO) [ 746 MB ] Русалка и дочь короля / Дочь короля / The King's Daughter | DUB | BDRip bober100 Скачать
1 | 0
Фильмы (Blu-ray, BD-Remux, HDDVD) [ 27.95 GB ] Русалка и дочь короля / Дочь короля / The King's Daughter | DUB | BD Remux 1080p bober100 Скачать
1 | 0
Фильмы 2022 [DVDrip, WEB-DLRip, HDrip] (DUB, MVO) [ 1.46 GB ] Русалка и дочь короля / Дочь короля / The King's Daughter | DUB | BDRip bober100 Скачать
3 | 0
Фильмы [HD 720p, 1080p] (Хороший звук DUB, MVO) [ 6.43 GB ] Русалка и дочь короля / Дочь короля / The King's Daughter | DUB | 720p bober100 Скачать
1 | 0
Фильмы [HD 720p, 1080p] (Хороший звук DUB, MVO) [ 11.66 GB ] Русалка и дочь короля / Дочь короля / The King's Daughter | DUB | 1080p bober100 Скачать
3 | 0
T Фильмы 2022 (Звук TS, Cam, VO, DVO) [ 2.19 GB ] Русалка и дочь короля / Дочь короля / The King's Daughter | Pazl Voice | BDRip-AVC bober100 Скачать
2 | 0

28-11-2019 20:33  


Отключить вcю реклaмy на сайте, в т.ч. и в плеере онлайн просмотра!

    Дорогой пользователь! Огромная просьба, поблагодарите релизера, оцените раздачу и оставьте свои комментарий, если Вы скачали Русалка и дочь короля через торрент бесплатно!!
    Комментировать посты могут только пользователи прошедшие не сложную регистрацию
    Показать сообщения:    


    Русалка и дочь короля через торрент
    Скачать бесплатно Русалка и дочь короля
    Русалка и дочь короля скачать торрент
    Русалка и дочь короля смотреть онлайн
    Cкачать фильм Русалка и дочь короля бесплатно
    Русалка и дочь короля скачать торрент в хорошем качестве
    Русалка и дочь короля смотреть онлайн бесплатно в хорошем качестве
    Вы не можете начинать темы
    Вы не можете отвечать на сообщения
    Вы не можете редактировать свои сообщения
    Вы не можете удалять свои сообщения
    Вы не можете голосовать в опросах
    Вы не можете прикреплять файлы к сообщениям
    Вы можете скачивать файлы
    Русалка и дочь короля / Дочь короля / The King's Daughter [2022, Фэнтези, приключения, мелодрама, WEB-DL 1080p] [Локализованная версия] Дубляж [СиПиАй Филмз / CPI Films] смотреть онлайн, скачать торрент picoco.icu