Лицензия

MVO

1

1 сезон

Лицензия

Лицензия

13

MVO

1 сезон

Deluxe Edition

pack

Рекомендуем

30

Repack

ВАЖНО

ВАЖНО

Ghostwire

RePack

jed

RePack

fifa19

RePack

RDR2

RePack

NEED FOR SPEED™ PAYBACK

RePack

Кинопоиск HD

 Острые козырьки 6 сезон

6 сезон

FAR CRY 6

RePack

Лицензия

MVO

1

1 сезон

1 сезон

Лицензия

  

Стая / Сезон: 1 / Серии: 1-3 из 8 (Марк Горобец) [2022, Драма, WEB-DLRip]

Стая через торрент pb.wtf

Раздают: 2 [ 60 KB/s ] Качают: 3 [ 0 KB/s ]
Размер: 1.86 GB | Добавлен: 2 д. 5 ч. назад | Торрент скачан:8 раз
Смотреть онлайн Стая | Скачать   

09-09-2022 01:17 Стая Скачать торрент  

Стая
Год выпуска: 2022
Страна: Россия
Студия: Кинокомпания "Art Pictures Vision" по заказу «НМГ Студии» и при поддержке АНО «ИРИ»
Жанр: Драма
Продолжительность: ~ 00:48:00 серия
Перевод: Не требуется
Субтитры: отсутствуют

Режиссер: Марк Горобец

rating

В ролях: Агата Муцениеце, Макар Запорожский, Георгий Ратишвили, Павел Табаков, Александр Робак, Иван Непомнящий, Эльшан Алескеров, Вероника Мохирева, Анастасия Красовская, Екатерина Карташова, Юрий Насонов, Екатерина Честина, Александр Кудренко, Жанна Маркевич, Александр Югов, Виталий Хаев, Константин Адаев, Светлана Степанковская, Маша Шерстобитова, Владислав Ходосевич, Артур Павленко

Описание: Юные правонарушители в рамках экспериментальной программы отправляются в горы. Они настолько разные, что вряд ли когда-нибудь встретились бы в обычной жизни. Каждый — яркая личность со своей мрачной историей. Каждому придется по-новому раскрыться в диких условиях. Им предстоит проложить тропу через опасный горный перевал под контролем психолога-воспитателя Риты. Все меняется, когда ночью в палаточном лагере происходит трагедия. Подростки понимают, что будут главными подозреваемыми, и решают бежать, взяв Риту в заложницы. На их поиски отправляются муж Риты и отец одного из ребят, не подозревая, что им предстоит узнать и с чем столкнуться в процессе. Харизматичные юные герои посреди дикой природы начинают строить новую жизнь и превращаются в настоящую «стаю». Правда, в команде есть тот, кто никогда не должен был оказаться в экспедиции — человек, который раскроет в ребятах самые темные стороны.

Качество: WEB-DLRip
Формат: AVI

Видео: XviD, 720x304, ~ 1600 Кбит/с, 0.287 bit/pixel, 25 Кадр/с
Аудио: 48.0 kHz, AC3 Dolby Digital, 2/0 (L,R) ch, ~ 192 kbps
скриншот  скриншот  скриншот  скриншот  скриншот  

скриншот  скриншот  скриншот  скриншот  скриншот  

Общее
Полное имя : D:\Staya.S01.WEB-DLRip.25Kuzmich\Staya.s01e01.WEB-DLRip.25Kuzmich.avi
Формат : AVI
Формат/Информация : Audio Video Interleave
Размер файла : 623 Мбайт
Продолжительность : 48 м. 7 с.
Общий поток : 1 811 Кбит/сек
Программа кодирования : VirtualDubMod 1.5.10.3 | www.virtualdub-fr.org || (build 2550/release)
Библиотека кодирования : VirtualDubMod build 2550/release

Видео
Идентификатор : 0
Формат : MPEG-4 Visual
Профиль формата : Advanced [email protected]
Настройки формата : BVOP1
Параметр BVOP формата : 1
Параметр QPel формата : Нет
Параметр GMC формата : Без точки перехода
Параметр матрицы формата : Default (MPEG)
Идентификатор кодека : XVID
Идентификатор кодека/Подсказка : XviD
Продолжительность : 48 м. 7 с.
Битрейт : 1 609 Кбит/сек
Ширина : 720 пикселей
Высота : 304 пикселя
Соотношение сторон : 2,35:1
Частота кадров : 25,000 кадров/сек
Цветовое пространство : YUV
Субдискретизация насыщенности : 4:2:0
Битовая глубина : 8 бит
Тип развёртки : Прогрессивная
Метод сжатия : С потерями
Бит/(Пиксели*Кадры) : 0.287
Размер потока : 554 Мбайт (89%)
Библиотека кодирования : XviD 73

Аудио
Идентификатор : 1
Формат : AC-3
Формат/Информация : Audio Coding 3
Коммерческое название : Dolby Digital
Идентификатор кодека : 2000
Продолжительность : 48 м. 7 с.
Вид битрейта : Постоянный
Битрейт : 192 Кбит/сек
Каналы : 2 канала
Channel layout : L R
Частота : 48,0 КГц
Частота кадров : 31,250 кадров/сек (1536 SPF)
Метод сжатия : С потерями
Размер потока : 66,1 Мбайт (11%)
Выравнивание : Разделение по промежуткам
Продолжительность промежутка : 40 мс. (1,00 видеокадр)
Время предзагрузки промежутка : 500 мс.
Service kind : Complete Main

Внимание! Раздача ведётся путём добавления новых серий; при каждом добавлении создаётся новый торрент.
Чтобы начать докачку новой серии, пользователям необходимо сделать следующее:
1. Остановить скачивание;
2. Удалить старый торрент у себя из клиента (старые серии удалять не надо);
3. Скачать новый торрент и запустить его у себя в клиенте вместо старого, при этом указать клиенту путь в старую папку куда и должно происходить скачивание новых серий. Ваш клиент при этом должен произвести хеширование (проверку) старой папки и будет докачивать только те серии, которых у вас ещё нет. Старые серии при этом не удаляются, а продолжают раздаваться! Eсли вы уже удалили старые серии, то предотвратить повторную закачку старых серий можно, отжав галочку в соответствующих местах при запуске нового торрента.



Скачать Стая через торрент https://i120.fastpic.org/big/2022/0909/2b/6a93f3af793dbbae114af5c09105e72b.jpg Скачать, смотреть онлайн Стая бесплантно в хорошем качестве Описание: Юные правонарушители в рамках экспериментальной программы отправляются в горы. Они настолько разные, что вряд ли когда-нибудь ... 7.8 10 4
Торрент: Зарегистрирован [2022-09-22 23:10] · скачан: 8 раз
Статус: √ проверено
Размер: 1.86 GB
Как cкачать? Как скачать Стая через торрент | UTorrent

% Раздел Тема Автор DL S | L
Наши сериалы [ 4.2 GB ] Стая / Сезон: 1 / Серии: 1-3 из 8 | | 1080p bober100 Скачать
4 | 3
Наши сериалы [ 1.21 GB ] Стая / Сезон: 1 / Серии: 1-2 из 8 | | DLRip-AVC bober100 Скачать
5 | 3

28-11-2019 20:33  

Отключить вcю реклaмy на сайте

    Дорогой пользователь! Огромная просьба, поблагодарите релизера, оцените раздачу и оставьте свои комментарий, если Вы скачали Стая через торрент бесплатно!!
    Комментировать посты могут только пользователи прошедшие не сложную регистрацию
    Показать сообщения:    


    Стая через торрент
    Скачать бесплатно Стая
    Стая скачать торрент
    Стая смотреть онлайн
    Cкачать фильм Стая бесплатно
    Стая скачать торрент в хорошем качестве
    Стая смотреть онлайн бесплатно в хорошем качестве
    Вы не можете начинать темы
    Вы не можете отвечать на сообщения
    Вы не можете редактировать свои сообщения
    Вы не можете удалять свои сообщения
    Вы не можете голосовать в опросах
    Вы не можете прикреплять файлы к сообщениям
    Вы можете скачивать файлы