Доктор Стрэндж

Лицензия

Добыча

Дубляж

Уэнсдэй

1 сезон

Тор

Дубляж

В эфире

Дубляж

Там, где раки поют

MVO

Властелин колец

1 сезон

Deluxe

pack

Рекомендуем

30

Пиратка

ВАЖНО

ВАЖНО

Ghostwire

Пиратка

jed

RePack

nioh2

RePack

RDR2

RePack

NEED FOR SPEED™ PAYBACK

RePack

скачать торрент

Кинопоиск HD

Острые козырьки 6 сезон

6 сезон

FAR CRY 6

RePack

скачать торрент

Лицензия

скачать торрент

MVO

1

1 сезон

скачать торрент

1 сезон

скачать торрент

Лицензия

  

Стая / Сезон: 1 / Серии: 1-8 из 8 (Марк Горобец) [2022, Драма, WEB-DL 1080p]

Стая через торрент pb.wtf

Раздают: 8 [ 187 KB/s ] Качают: 1 [ 0 KB/s ]
Размер: 11.5 GB | Добавлен: 1 мес. 8 д. назад | Торрент скачан:89 раз
Смотреть онлайн | Скачать   

09-09-2022 01:29 Стая Скачать торрент  

Стая
Год выпуска: 2022
Страна: Россия
Студия: Кинокомпания "Art Pictures Vision" по заказу «НМГ Студии» и при поддержке АНО «ИРИ»
Жанр: Драма
Продолжительность: ~ 00:48:00 серия
Перевод: Не требуется
Субтитры: отсутствуют

Режиссер: Марк Горобец

rating

В ролях: Агата Муцениеце, Макар Запорожский, Георгий Ратишвили, Павел Табаков, Александр Робак, Иван Непомнящий, Эльшан Алескеров, Вероника Мохирева, Анастасия Красовская, Екатерина Карташова, Юрий Насонов, Екатерина Честина, Александр Кудренко, Жанна Маркевич, Александр Югов, Виталий Хаев, Константин Адаев, Светлана Степанковская, Маша Шерстобитова, Владислав Ходосевич, Артур Павленко

Описание: Юные правонарушители в рамках экспериментальной программы отправляются в горы. Они настолько разные, что вряд ли когда-нибудь встретились бы в обычной жизни. Каждый — яркая личность со своей мрачной историей. Каждому придется по-новому раскрыться в диких условиях. Им предстоит проложить тропу через опасный горный перевал под контролем психолога-воспитателя Риты. Все меняется, когда ночью в палаточном лагере происходит трагедия. Подростки понимают, что будут главными подозреваемыми, и решают бежать, взяв Риту в заложницы. На их поиски отправляются муж Риты и отец одного из ребят, не подозревая, что им предстоит узнать и с чем столкнуться в процессе. Харизматичные юные герои посреди дикой природы начинают строить новую жизнь и превращаются в настоящую «стаю». Правда, в команде есть тот, кто никогда не должен был оказаться в экспедиции — человек, который раскроет в ребятах самые темные стороны.

Качество: WEB-DL 1080p
Формат: MKV

Видео: MPEG-4 AVC, 1920x1080, ~ 4000 Кбит/с, 0.077 bit/pixel, 25 Кадр/с
Аудио: 48.0 kHz, AC3 Dolby Digital, 2/0 (L,R) ch, ~ 192 kbps
скриншот  скриншот  скриншот  скриншот  скриншот  скриншот  

Общее
Уникальный идентификатор : 151483956794983813193331585460415459621 (0x71F6BFB48A3F16EBB355507F28437125)
Полное имя : D:\Staya.S01.2022.WEB-DL.1080p\Staya.S01.E01.2022.WEB-DL.1080p.mkv
Формат : Matroska
Версия формата : Version 4
Размер файла : 2,12 Гбайт
Продолжительность : 48 м. 7 с.
Общий поток : 6 318 Кбит/сек
Название фильма : Staya.S01.E01.2022.WEB-DL.1080p
Дата кодирования : UTC 2022-09-08 21:16:02
Программа кодирования : mkvmerge v68.0.0 ('The Curtain') 64-bit
Библиотека кодирования : libebml v1.4.2 + libmatroska v1.6.4
Attachments : poster.jpg

Видео
Идентификатор : 1
Формат : AVC
Формат/Информация : Advanced Video Codec
Профиль формата : [email protected]
Настройки формата : CABAC / 4 Ref Frames
Параметр CABAC формата : Да
Параметр RefFrames формата : 4 кадра
Параметр GOP формата : M=4, N=50
Идентификатор кодека : V_MPEG4/ISO/AVC
Продолжительность : 48 м. 7 с.
Битрейт : 6 123 Кбит/сек
Ширина : 1 920 пикселей
Высота : 1 080 пикселей
Соотношение сторон : 16:9
Режим частоты кадров : Постоянный
Частота кадров : 25,000 кадров/сек
Цветовое пространство : YUV
Субдискретизация насыщенности : 4:2:0
Битовая глубина : 8 бит
Тип развёртки : Прогрессивная
Бит/(Пиксели*Кадры) : 0.118
Размер потока : 2,06 Гбайт (97%)
Default : Да
Forced : Нет
Цветовой диапазон : Limited
Основные цвета : BT.709
Характеристики трансфера : BT.709
Коэффициенты матрицы : BT.709

Аудио
Идентификатор : 2
Формат : AC-3
Формат/Информация : Audio Coding 3
Коммерческое название : Dolby Digital
Идентификатор кодека : A_AC3
Продолжительность : 48 м. 7 с.
Вид битрейта : Постоянный
Битрейт : 192 Кбит/сек
Каналы : 2 канала
Channel layout : L R
Частота : 48,0 КГц
Частота кадров : 31,250 кадров/сек (1536 SPF)
Метод сжатия : С потерями
Размер потока : 66,1 Мбайт (3%)
Service kind : Complete Main
Default : Да
Forced : Нет

Внимание! Раздача ведётся путём добавления новых серий; при каждом добавлении создаётся новый торрент. Чтобы начать докачку новой серии, пользователям необходимо сделать следующее: (1) остановить скачивание, (2) удалить старый торрент у себя из клиента (старые серии удалять не надо), (3) скачать новый торрент и запустить его у себя в клиенте вместо старого, при этом указать клиенту путь в старую папку куда и должно происходить скачивание новых серий.

Ваш клиент при этом должен произвести хеширование (проверку) старой папки (если не производит сам - помогите ему сделать это), и будет докачивать только те серии которых у вас ещё нет. Старые серии при этом не удаляются, а продолжают раздаваться!

Eсли вы уже удалили старые серии, то предотвратить повторную закачку старых серий можно, отжав галочку в соответствующих местах при запуске нового торрента.



Скачать Стая через торрент https://i120.fastpic.org/big/2022/0909/2b/6a93f3af793dbbae114af5c09105e72b.jpg Скачать, смотреть онлайн Стая бесплантно в хорошем качестве Описание: Юные правонарушители в рамках экспериментальной программы отправляются в горы. Они настолько разные, что вряд ли когда-нибудь ... 5 10 20
Торрент: Зарегистрирован [2022-10-28 16:05] · скачан: 89 раз
Статус: √ проверено
Размер: 11.5 GB
Как cкачать? Как скачать Стая через торрент | UTorrent

% Раздел Тема Автор DL S | L
Наши сериалы [ 4.95 GB ] Стая / Сезон: 1 / Серии: 1-8 из 8 | | DLRip-AVC bober100 Скачать
3 | 1
Наши сериалы [ 5.09 GB ] Стая / Сезон: 1 / Серии: 1-8 из 8 | | DLRip bober100 Скачать
14 | 2

28-11-2019 20:33  


Отключить вcю реклaмy на сайте, в т.ч. и в плеере онлайн просмотра!

    Дорогой пользователь! Огромная просьба, поблагодарите релизера, оцените раздачу и оставьте свои комментарий, если Вы скачали Стая через торрент бесплатно!!
    Комментировать посты могут только пользователи прошедшие не сложную регистрацию
    Показать сообщения:    


    Стая через торрент
    Скачать бесплатно Стая
    Стая скачать торрент
    Стая смотреть онлайн
    Cкачать фильм Стая бесплатно
    Стая скачать торрент в хорошем качестве
    Стая смотреть онлайн бесплатно в хорошем качестве
    Вы не можете начинать темы
    Вы не можете отвечать на сообщения
    Вы не можете редактировать свои сообщения
    Вы не можете удалять свои сообщения
    Вы не можете голосовать в опросах
    Вы не можете прикреплять файлы к сообщениям
    Вы можете скачивать файлы
    Стая / Сезон: 1 / Серии: 1-8 из 8 [2022, Драма, WEB-DL 1080p] смотреть онлайн, скачать торрент picoco.icu