Доктор Стрэндж

Лицензия

Добыча

Дубляж

Уэнсдэй

1 сезон

Тор

Дубляж

В эфире

Дубляж

Там, где раки поют

MVO

Властелин колец

1 сезон

Deluxe

pack

Рекомендуем

30

Пиратка

ВАЖНО

ВАЖНО

Ghostwire

Пиратка

jed

RePack

nioh2

RePack

RDR2

RePack

NEED FOR SPEED™ PAYBACK

RePack

скачать торрент

Кинопоиск HD

Острые козырьки 6 сезон

6 сезон

FAR CRY 6

RePack

скачать торрент

Лицензия

скачать торрент

MVO

1

1 сезон

скачать торрент

1 сезон

скачать торрент

Лицензия

  

Проклятие Артура / Arthur, malédiction (Бартелеми Гроссманн) [2022, Ужасы, WEB-DL 1080p] Дубляж [Кириллица]

Проклятие Артура через торрент pb.wtf

Раздают: 2 [ 0 KB/s ]
Размер: 3.33 GB | Добавлен: 2 мес. 25 д. назад | Торрент скачан:165 раз
Смотреть онлайн | Скачать   

09-09-2022 03:00 Проклятие Артура Скачать торрент  

Проклятие Артура
Arthur, malédiction

Год выпуска: 2022
Страна: Франция
Студия: Canal+ [fr], Ciné, Cofinova 17
Жанр: Ужасы
Продолжительность: 01:26:47
Перевод: Дублированный | Кириллица
Субтитры: отсутствуют

Режиссер: Бартелеми Гроссманн

rating

В ролях: Вадим Ажид, Лола Андреони, Людовик Бертийо, Талия Бессон, Марсо Эберсоль, Микаэль Халими, Джейд Педри, Матье Бергер, Максим Элиас-Мене, Янн Менди

Описание: Всю свою жизнь 18-летний Алекс был фанатом фэнтезийной саги об Артуре и минипутах. Однажды друзья зовут его совершить путешествие по местам, где был снят фильм. Но они еще не знают, каким кошмаром обернется эта затея.

Качество: WEB-DL 1080p
Формат: MKV

Видео: MPEG-4 AVC, 1920x804, 5114 Kbit/s, 24.000 fps
Аудио: 48 kHz, AC3, 5.1, 384 Kbps | Дублированный | Кириллица | RUS |
скриншот  скриншот  скриншот  скриншот  скриншот  

General
Unique ID : 247816787071471986090835206191990538269 (0xBA6FC6EFA68F6D3F136D7069E035801D)
Complete name : F:VideoArthur.malediction.2022.WEB-DL.1080p.seleZen.mkv
Format : Matroska
Format version : Version 4
File size : 3.33 GiB
Duration : 1 h 26 min
Overall bit rate : 5 494 kb/s
Movie name : Arthur, malédiction 2022 from seleZen
Encoded date : UTC 2022-09-07 22:06:18
Writing application : mkvmerge v59.0.0 ('Shining Star') 64-bit
Writing library : libebml v1.4.2 + libmatroska v1.6.4

Video
ID : 1
Format : AVC
Format/Info : Advanced Video Codec
Format profile : [email protected]
Format settings : CABAC / 4 Ref Frames
Format settings, CABAC : Yes
Format settings, Reference : 4 frames
Codec ID : V_MPEG4/ISO/AVC
Duration : 1 h 26 min
Bit rate : 5 114 kb/s
Width : 1 920 pixels
Height : 804 pixels
Display aspect ratio : 2.40:1
Frame rate mode : Constant
Frame rate : 24.000 FPS
Color space : YUV
Chroma subsampling : 4:2:0
Bit depth : 8 bits
Scan type : Progressive
Bits/(Pixel*Frame) : 0.138
Stream size : 3.10 GiB (93%)
Language : English
Default : Yes
Forced : No

Audio
ID : 2
Format : AC-3
Format/Info : Audio Coding 3
Commercial name : Dolby Digital
Codec ID : A_AC3
Duration : 1 h 26 min
Bit rate mode : Constant
Bit rate : 384 kb/s
Channel(s) : 6 channels
Channel layout : L R C LFE Ls Rs
Sampling rate : 48.0 kHz
Frame rate : 31.250 FPS (1536 SPF)
Compression mode : Lossy
Stream size : 239 MiB (7%)
Language : Russian
Service kind : Complete Main
Default : Yes
Forced : Yes




Скачать Проклятие Артура через торрент https://i120.fastpic.org/big/2022/0909/53/4b6fd50d66c80b8c782802ea72d26f53.jpg Скачать, смотреть онлайн Проклятие Артура бесплантно в хорошем качестве Описание: Всю свою жизнь 18-летний Алекс был фанатом фэнтезийной саги об Артуре и минипутах. Однажды друзья зовут его совершить путешествие ... 10 10 7
Торрент: Зарегистрирован [2022-09-09 03:00] · скачан: 165 раз
Статус: √ проверено
Размер: 3.33 GB
Как cкачать? Как скачать Проклятие Артура через торрент | UTorrent

% Раздел Тема Автор DL S | L
Фильмы 2022 [DVDrip, WEB-DLRip, HDrip] (DUB, MVO) [ 1.46 GB ] Проклятие Артура / Arthur, malédiction | Кириллица | BDRip bober100 Скачать
1 | 0
Фильмы 2022 [DVDrip, WEB-DLRip, HDrip] (DUB, MVO) [ 746 MB ] Проклятие Артура / Arthur, malédiction | Кириллица | BDRip bober100 Скачать
1 | 0
Фильмы 2022 [DVDrip, WEB-DLRip, HDrip] (DUB, MVO) [ 1.65 GB ] Проклятие Артура / Arthur, malédiction | Кириллица | DLRip-AVC bober100 Скачать
1 | 0

28-11-2019 20:33  


Отключить вcю реклaмy на сайте, в т.ч. и в плеере онлайн просмотра!

    Дорогой пользователь! Огромная просьба, поблагодарите релизера, оцените раздачу и оставьте свои комментарий, если Вы скачали Проклятие Артура через торрент бесплатно!!
    Комментировать посты могут только пользователи прошедшие не сложную регистрацию
    Показать сообщения:    


    Проклятие Артура через торрент
    Скачать бесплатно Проклятие Артура
    Проклятие Артура скачать торрент
    Проклятие Артура смотреть онлайн
    Cкачать фильм Проклятие Артура бесплатно
    Проклятие Артура скачать торрент в хорошем качестве
    Проклятие Артура смотреть онлайн бесплатно в хорошем качестве
    Вы не можете начинать темы
    Вы не можете отвечать на сообщения
    Вы не можете редактировать свои сообщения
    Вы не можете удалять свои сообщения
    Вы не можете голосовать в опросах
    Вы не можете прикреплять файлы к сообщениям
    Вы можете скачивать файлы
    Проклятие Артура / Arthur, malédiction [2022, Ужасы, WEB-DL 1080p] Дубляж [Кириллица] смотреть онлайн, скачать торрент picoco.icu