Доктор Стрэндж

Лицензия

Добыча

Дубляж

Уэнсдэй

1 сезон

Тор

Дубляж

В эфире

Дубляж

Там, где раки поют

MVO

Властелин колец

1 сезон

Deluxe

pack

Рекомендуем

30

Пиратка

ВАЖНО

ВАЖНО

Ghostwire

Пиратка

jed

RePack

nioh2

RePack

RDR2

RePack

NEED FOR SPEED™ PAYBACK

RePack

скачать торрент

Кинопоиск HD

Острые козырьки 6 сезон

6 сезон

FAR CRY 6

RePack

скачать торрент

Лицензия

скачать торрент

MVO

1

1 сезон

скачать торрент

1 сезон

скачать торрент

Лицензия

  

Элвис / Elvis (Баз Лурман) [2022, Биография, драма, музыка, UHD BDRemux 2160p, (Dolby Vision Profile 8)] 2xDUB [Bravo Records Georgia, Red Head Sound] +2xMVO [Jaskier, TVShows]

Элвис через торрент pb.wtf

Раздают: 1 [ 0 KB/s ]
Размер: 73.18 GB | Добавлен: 2 мес. 27 д. назад | Торрент скачан:51 раз
Смотреть онлайн | Скачать   

09-09-2022 05:20 Элвис Скачать торрент  

Элвис
Elvis

Год выпуска: 2022
Страна: США, Австралия
Студия: Bazmark Films, Roadshow Entertainment, The Jackal Group
Жанр: Биография, драма, музыка
Продолжительность: 02:39:15
Перевод(ы):
#1: Дублированный | Bravo Records Georgia
#2: Дублированный | Red Head Sound
#3: Профессиональный (многоголосый) | Jaskier
#4: Профессиональный многоголосый | TVShows
Субтитры: Русские (Forced, Full), английские

Режиссер: Баз Лурман

rating

В ролях: Остин Батлер, Коди Смит-Макфи, Том Хэнкс, Дэвид Уинам, Дэйкр Монтгомери, Люк Брейси, Оливия ДеДжонг, Ричард Роксбург, Келвин Харрисон-мл., Ксавьер Сэмюэл, Кейт Малвани, Элизабет Каллен, Наташа Бассетт, Мелина Видлер, Леон Форд, Кристофер Соммерс, Джош МакКонвилл, Гэри Кларк-младший, Хелен Томсон, Чарльз Граундс, Чайдон Джей, Адам Данн, Йола, Гарет Дэвис, Алекс Раду, Элтон Мейсон, Лилли Уоллес, Майк Бингаман, Шэрон Брукс, Кристиан Маккарти, Дэвид Гэннон (II), Асаби Гудман, Патрик Ширер, Джек МакГирр, Сандро Коларелли, Ши Д'Монфор, Лиам Доннелли, Сильвана Аззи Эрас

Описание: История жизни и музыки Элвиса Пресли через призму сложных взаимоотношений с его менеджером, полковником Томом Паркером. Они работали вместе более 20 лет: от начала карьеры Элвиса до его небывалой славы.

Качество: UHD BDRemux 2160p | Dolby Vision Profile 8
Формат: MKV

Видео: 3840x2160 at 23.976 fps, MPEG-H HEVC HDR ~ 60600 kbps avg
Аудио #01: 48 kHz, AC3, 5.1, 384 Kbps | Дублированный | Bravo Records Georgia | RUS |
Аудио #02: 48 kHz, AC3, 5.1, 640 Kbps | Дублированный | Red Head Sound | RUS |
Аудио #03: 48 kHz, AC3, 5.1, 448 Kbps | Профессиональный многоголосый | Jaskier | RUS |
Аудио #04: 48 kHz, AC3, 2.0, 192 Kbps | Профессиональный многоголосый | TVShows | RUS |
Аудио #05: 48 kHz, TrueHD, 7.1, 3021 Kbps | Оригинал | ENG |
Аудио #06: 48 kHz, AC3, 5.1, 448 Kbps | Оригинал | ENG |
скриншот  скриншот  скриншот  скриншот  скриншот  скриншот  

General
Unique ID : 61606431297510704999458451569158860320 (0x2E58F7929298EBA5995B946A03AB2E20)
Complete name : F:VideoElvis.2022.BDREMUX.2160p.HDR.DVP8.seleZen.mkv
Format : Matroska
Format version : Version 4
File size : 73.2 GiB
Duration : 2 h 39 min
Overall bit rate mode : Variable
Overall bit rate : 65.6 Mb/s
Movie name : Elvis 2022 from seleZen
Encoded date : UTC 2022-09-08 09:15:04
Writing application : mkvmerge v59.0.0 ('Shining Star') 64-bit
Writing library : libebml v1.4.2 + libmatroska v1.6.4

Video
ID : 1
ID in the original source m: 4117 (0x1015)
Format : HEVC
Format/Info : High Efficiency Video Coding
Format profile : Main [email protected]@High
HDR format : Dolby Vision, Version 1.0, dvhe.08.06, BL+RPU, Blu-ray compatible / SMPTE ST 2094 App 4, Version 1, HDR10+ Profile B compatible
Codec ID : V_MPEGH/ISO/HEVC
Duration : 2 h 39 min
Bit rate : 60.6 Mb/s
Width : 3 840 pixels
Height : 2 160 pixels
Display aspect ratio : 16:9
Frame rate mode : Constant
Frame rate : 23.976 (24000/1001) FPS
Color space : YUV
Chroma subsampling : 4:2:0 (Type 2)
Bit depth : 10 bits
Bits/(Pixel*Frame) : 0.305
Stream size : 67.4 GiB (92%)
Language : English
Default : No
Forced : No
Color range : Limited
Color primaries : BT.2020
Transfer characteristics : PQ
Matrix coefficients : BT.2020 non-constant
Mastering display color pri: Display P3
Mastering display luminance: min: 0.0001 cd/m2, max: 1000 cd/m2
Maximum Content Light Level: 429 cd/m2
Maximum Frame-Average Light: 116 cd/m2
Original source medium : Blu-ray

Audio #1
ID : 2
Format : AC-3
Format/Info : Audio Coding 3
Commercial name : Dolby Digital
Codec ID : A_AC3
Duration : 2 h 39 min
Bit rate mode : Constant
Bit rate : 384 kb/s
Channel(s) : 6 channels
Channel layout : L R C LFE Ls Rs
Sampling rate : 48.0 kHz
Frame rate : 31.250 FPS (1536 SPF)
Compression mode : Lossy
Stream size : 439 MiB (1%)
Title : Дубляж [BRG]
Language : Russian
Service kind : Complete Main
Default : Yes
Forced : Yes

Audio #2
ID : 3
Format : AC-3
Format/Info : Audio Coding 3
Commercial name : Dolby Digital
Codec ID : A_AC3
Duration : 2 h 39 min
Bit rate mode : Constant
Bit rate : 640 kb/s
Channel(s) : 6 channels
Channel layout : L R C LFE Ls Rs
Sampling rate : 48.0 kHz
Frame rate : 31.250 FPS (1536 SPF)
Compression mode : Lossy
Stream size : 729 MiB (1%)
Title : Дубляж [RHS]
Language : Russian
Service kind : Complete Main
Default : No
Forced : No

Audio #3
ID : 4
Format : AC-3
Format/Info : Audio Coding 3
Commercial name : Dolby Digital
Codec ID : A_AC3
Duration : 2 h 39 min
Bit rate mode : Constant
Bit rate : 448 kb/s
Channel(s) : 6 channels
Channel layout : L R C LFE Ls Rs
Sampling rate : 48.0 kHz
Frame rate : 31.250 FPS (1536 SPF)
Compression mode : Lossy
Stream size : 510 MiB (1%)
Title : MVO [Jaskier]
Language : Russian
Service kind : Complete Main
Default : No
Forced : No

Audio #4
ID : 5
Format : AC-3
Format/Info : Audio Coding 3
Commercial name : Dolby Digital
Codec ID : A_AC3
Duration : 2 h 39 min
Bit rate mode : Constant
Bit rate : 192 kb/s
Channel(s) : 2 channels
Channel layout : L R
Sampling rate : 48.0 kHz
Frame rate : 31.250 FPS (1536 SPF)
Compression mode : Lossy
Stream size : 219 MiB (0%)
Title : MVO [TVShows]
Language : Russian
Service kind : Complete Main
Default : No
Forced : No

Audio #5
ID : 6
Format : MLP FBA 16-ch
Format/Info : Meridian Lossless Packing FBA with 16-channel presentation
Commercial name : Dolby TrueHD with Dolby Atmos
Codec ID : A_TRUEHD
Duration : 2 h 39 min
Bit rate mode : Variable
Bit rate : 3 021 kb/s
Maximum bit rate : 4 668 kb/s
Channel(s) : 8 channels
Channel layout : L R C LFE Ls Rs Lb Rb
Sampling rate : 48.0 kHz
Frame rate : 1 200.000 FPS (40 SPF)
Compression mode : Lossless
Stream size : 3.36 GiB (5%)
Title : Original
Language : English
Default : No
Forced : No
Number of dynamic objects : 11
Bed channel count : 1 channel
Bed channel configuration : LFE

Audio #6
ID : 7
Format : AC-3
Format/Info : Audio Coding 3
Commercial name : Dolby Digital
Codec ID : A_AC3
Duration : 2 h 39 min
Bit rate mode : Constant
Bit rate : 448 kb/s
Channel(s) : 6 channels
Channel layout : L R C LFE Ls Rs
Sampling rate : 48.0 kHz
Frame rate : 31.250 FPS (1536 SPF)
Compression mode : Lossy
Stream size : 510 MiB (1%)
Language : English
Service kind : Complete Main
Default : No
Forced : No

Text #1
ID : 8
Format : UTF-8
Codec ID : S_TEXT/UTF8
Codec ID/Info : UTF-8 Plain Text
Duration : 2 h 29 min
Bit rate : 3 b/s
Frame rate : 0.008 FPS
Count of elements : 73
Stream size : 3.56 KiB (0%)
Title : Forced
Language : Russian
Default : Yes
Forced : Yes

Text #2
ID : 9
Format : UTF-8
Codec ID : S_TEXT/UTF8
Codec ID/Info : UTF-8 Plain Text
Duration : 2 h 38 min
Bit rate : 79 b/s
Frame rate : 0.184 FPS
Count of elements : 1753
Stream size : 92.2 KiB (0%)
Title : Full
Language : Russian
Default : No
Forced : No

Text #3
ID : 10
Format : UTF-8
Codec ID : S_TEXT/UTF8
Codec ID/Info : UTF-8 Plain Text
Duration : 2 h 39 min
Bit rate : 68 b/s
Frame rate : 0.266 FPS
Count of elements : 2537
Stream size : 79.9 KiB (0%)
Title : Full
Language : English
Default : No
Forced : No

Text #4
ID : 11
Format : UTF-8
Codec ID : S_TEXT/UTF8
Codec ID/Info : UTF-8 Plain Text
Duration : 2 h 39 min
Bit rate : 78 b/s
Frame rate : 0.296 FPS
Count of elements : 2827
Stream size : 91.2 KiB (0%)
Title : SDH
Language : English
Default : No
Forced : No

Menu
00:00:00.000 : Глава 01
00:09:07.046 : Глава 02
00:14:31.662 : Глава 03
00:22:06.367 : Глава 04
00:29:47.369 : Глава 05
00:38:06.576 : Глава 06
00:46:21.112 : Глава 07
00:53:34.044 : Глава 08
01:03:29.305 : Глава 09
01:12:05.071 : Глава 10
01:21:10.616 : Глава 11
01:30:17.245 : Глава 12
01:39:19.370 : Глава 13
01:48:44.977 : Глава 14
01:57:10.899 : Глава 15
02:04:46.145 : Глава 16
02:13:03.934 : Глава 17
02:22:35.630 : Глава 18
02:29:55.862 : Глава 19




Скачать Элвис через торрент https://i120.fastpic.org/big/2022/0909/d6/9cfbd715b7d9d7d8074d8955106c80d6.jpg Скачать, смотреть онлайн Элвис бесплантно в хорошем качестве Описание: История жизни и музыки Элвиса Пресли через призму сложных взаимоотношений с его менеджером, полковником Томом Паркером. Они ... 9.3 10 6
Торрент: Зарегистрирован [2022-09-09 05:20] · скачан: 51 раз
Статус: √ проверено
Размер: 73.18 GB
Как cкачать? Как скачать Элвис через торрент | UTorrent

28-11-2019 20:33  


Отключить вcю реклaмy на сайте, в т.ч. и в плеере онлайн просмотра!

    Дорогой пользователь! Огромная просьба, поблагодарите релизера, оцените раздачу и оставьте свои комментарий, если Вы скачали Элвис через торрент бесплатно!!
    Комментировать посты могут только пользователи прошедшие не сложную регистрацию
    Показать сообщения:    


    Элвис через торрент
    Скачать бесплатно Элвис
    Элвис скачать торрент
    Элвис смотреть онлайн
    Cкачать фильм Элвис бесплатно
    Элвис скачать торрент в хорошем качестве
    Элвис смотреть онлайн бесплатно в хорошем качестве
    Вы не можете начинать темы
    Вы не можете отвечать на сообщения
    Вы не можете редактировать свои сообщения
    Вы не можете удалять свои сообщения
    Вы не можете голосовать в опросах
    Вы не можете прикреплять файлы к сообщениям
    Вы можете скачивать файлы
    Элвис / Elvis [2022, Биография, драма, музыка, UHD BDRemux 2160p, ] 2xDUB [Bravo Records Georgia, Red Head Sound] +2xMVO [Jaskier, TVShows] смотреть онлайн, скачать торрент picoco.icu