Достать ножи: Стеклянная луковица

MVO

Добыча

Дубляж

Уэнсдэй

1 сезон

Тор

Дубляж

13 клиническая

1 сезон

Жестокая ночь

MVO

Одни из нас

1 сезон

Deluxe

pack

Рекомендуем

30

Пиратка

ВАЖНО

ВАЖНО

Ghostwire

Пиратка

jed

RePack

nioh2

RePack

RDR2

RePack

NEED FOR SPEED™ PAYBACK

RePack

скачать торрент

Кинопоиск HD

Острые козырьки 6 сезон

6 сезон

FAR CRY 6

RePack

скачать торрент

Лицензия

скачать торрент

MVO

1

1 сезон

скачать торрент

1 сезон

скачать торрент

Лицензия

  

Новый Comedy Club / Сезон: 18 / Серии: 1-22 из 27 [2022, ТВ-шоу, юмор, SATRip]

Новый Comedy Club через торрент pb.wtf

Раздают: 4 [ 1 KB/s ] Качают: 5 [ 0 KB/s ]
Размер: 13.02 GB | Добавлен: 10 д. назад | Торрент скачан:23 раза
| Скачать | Поддержите нас   

09-09-2022 12:45 Новый Comedy Club Скачать торрент  

Новый Comedy Club Год выпуска: 2022
Страна: Россия
Выпущено: ТНТ-PREMIER
Жанр: ТВ-шоу, юмор
Продолжительность: ~ 00:49:00 серия
Перевод: Не требуется

В ролях: Гарик Харламов, Павел Воля, Тимур Батрутдинов, Демис Карибидис, Марина Кравец, Евгений Синяков, Андрей Бебуришвили, Иван Половинкин, Зураб Матуа, Дмитрий Сорокин (II), Андрей Аверин, Андрей Шелков, Андрей Минин, Дмитрий Вьюшкин, Константин Маласаев, Сергей Гореликов, Антон Иванов, Дмитрий Грачёв (III), Константин Бутусов, United Sexy Boys, Андрей Скороход, Сергей Драгни, Алексей Кривеня, Максим Конюхов

Описание: Главное юмористическое шоу российского телевидения возвращается после перерыва. Comedy Club уже почти два десятилетия остаётся на передовой юмора, всегда успевая за трендами и даже задавая их. В числе гостей шоу всегда можно увидеть самых медийных звёзд: от Ольги Бузовой до Евгения Понасенкова. А на сцену всегда выходят комики, которые за словом в карман не лезут. Душевный острослов Павел Воля, харизматичный лицедей Демис Карибидис, обворожительная красотка Марина Кравец и другие звёзды клуба комедий готовы удивлять зрителей в новом сезоне шоу. Миниатюры, стендап, музыкальные номера и не подпадающее ни под какие жанровые рамки творчество организованной музыкальной группы USB – на сцене Comedy будет жарко, как никогда.

Качество: SATRip
Формат: AVI

Видео: XviD, 1650 Кбит/с, 720x400
Аудио: MP3, 2 ch, 192 Кбит/с
скриншот  скриншот  скриншот  скриншот  скриншот  скриншот  

Общее
Полное имя : D:Comedy Club.S18.XviD.SATRip.25KuzmichComedy Club.S18E01.XviD.SATRip.25Kuzmich.avi
Формат : AVI
Формат/Информация : Audio Video Interleave
Размер файла : 615 Мбайт
Продолжительность : 46 м. 28 с.
Общий поток : 1 850 Кбит/сек
Программа кодирования : VirtualDubMod 1.5.10.3 (build 2550/release)
Библиотека кодирования : VirtualDubMod build 2550/release

Видео
Идентификатор : 0
Формат : MPEG-4 Visual
Профиль формата : Advanced [email protected]
Настройки формата : BVOP1
Параметр BVOP формата : 1
Параметр QPel формата : Нет
Параметр GMC формата : Без точки перехода
Параметр матрицы формата : Default (MPEG)
Идентификатор кодека : XVID
Идентификатор кодека/Подсказка : XviD
Продолжительность : 46 м. 28 с.
Битрейт : 1 648 Кбит/сек
Ширина : 720 пикселей
Высота : 400 пикселей
Соотношение сторон : 16:9
Частота кадров : 25,000 кадров/сек
Цветовое пространство : YUV
Субдискретизация насыщенности : 4:2:0
Битовая глубина : 8 бит
Тип развёртки : Прогрессивная
Метод сжатия : С потерями
Бит/(Пиксели*Кадры) : 0.229
Размер потока : 548 Мбайт (89%)
Библиотека кодирования : XviD 73

Аудио
Идентификатор : 1
Формат : MPEG Audio
Версия формата : Version 1
Профиль формата : Layer 3
Идентификатор кодека : 55
Идентификатор кодека/Подсказка : MP3
Продолжительность : 46 м. 28 с.
Вид битрейта : Постоянный
Битрейт : 192 Кбит/сек
Каналы : 2 канала
Частота : 48,0 КГц
Частота кадров : 41,667 кадра/сек (1152 SPF)
Метод сжатия : С потерями
Размер потока : 63,8 Мбайт (10%)
Выравнивание : Соединение по промежуткам
Продолжительность промежутка : 40 мс. (1,00 видеокадр)
Время предзагрузки промежутка : 504 мс.
Библиотека кодирования : LAME3.99r
Настройки программы : -m s -V 4 -q 2 -lowpass 18.6 -b 192

Внимание! Раздача ведётся путём добавления новых серий; при каждом добавлении создаётся новый торрент. Чтобы начать докачку новой серии, пользователям необходимо сделать следующее:
(1) остановить скачивание,
(2) удалить старый торрент у себя из клиента (старые серии удалять не надо),
(3) скачать новый торрент и запустить его у себя в клиенте вместо старого, при этом указать клиенту путь в старую папку куда и должно происходить скачивание новых серий.
Ваш клиент при этом должен произвести хеширование (проверку) старой папки (если не производит сам - помогите ему сделать это), и будет докачивать только те серии которых у вас ещё нет. Старые серии при этом не удаляются, а продолжают раздаваться!
Eсли вы уже удалили старые серии, то предотвратить повторную закачку старых серий можно, отжав галочку в соответствующих местах при запуске нового торрента. По возможности, желательно не удалять старые серии как можно дольше чтобы релизёр не столько продолжал раздавать старые серии, а смог сконцентрироваться на новых.



Скачать Новый Comedy Club через торрент https://i120.fastpic.org/big/2022/0909/ff/432befcabee2cb4f1b82cac8f4b377ff.jpg Скачать, смотреть онлайн Новый Comedy Club бесплантно в хорошем качестве Описание: Главное юмористическое шоу российского телевидения возвращается после перерыва. Comedy Club уже почти два десятилетия остаётся на ... 9.1 10 37
Info! Золотая раздача, скачанное не засчитывается.
Торрент: Зарегистрирован [2023-01-28 03:42] · скачан: 23 раз
Статус: √ проверено
Размер: 13.02 GB
Как cкачать? Как скачать Новый Comedy Club через торрент | UTorrent

% Раздел Тема Автор DL S | L
Comedy Club - Комеди Клаб new [ 31.88 GB ] Новый Comedy Club / Сезон: 18 / Серии: 1-22 из 27 [2022, ТВ-шоу, юмор, WEBRip 1080p | | 1080p bober100 Скачать
1 | 0



Последний раз редактировалось: bober100 (2023-01-28 03:42), всего редактировалось 9 раз(а)

28-11-2019 20:33  


Отключить вcю реклaмy на сайте, в т.ч. и в плеере онлайн просмотра!

19-11-2022 09:56 Новый Comedy Club Скачать торрент  

super, спасибо !



18-12-2022 01:03 Новый Comedy Club Скачать торрент  

СПАСИБО!



    Дорогой пользователь! Огромная просьба, поблагодарите релизера, оцените раздачу и оставьте свои комментарий, если Вы скачали Новый Comedy Club через торрент бесплатно!!
    Комментировать посты могут только пользователи прошедшие не сложную регистрацию
    Показать сообщения:    


    Новый Comedy Club через торрент
    Скачать бесплатно Новый Comedy Club
    Новый Comedy Club скачать торрент
    Новый Comedy Club смотреть онлайн
    Cкачать фильм Новый Comedy Club бесплатно
    Новый Comedy Club скачать торрент в хорошем качестве
    Новый Comedy Club смотреть онлайн бесплатно в хорошем качестве
    Вы не можете начинать темы
    Вы не можете отвечать на сообщения
    Вы не можете редактировать свои сообщения
    Вы не можете удалять свои сообщения
    Вы не можете голосовать в опросах
    Вы не можете прикреплять файлы к сообщениям
    Вы можете скачивать файлы
    Новый Comedy Club / Сезон: 18 / Серии: 1-22 из 27 [2022, ТВ-шоу, юмор, SATRip] смотреть онлайн, скачать торрент picoco.icu