Лицензия

MVO

1

1 сезон

Лицензия

Лицензия

13

MVO

1 сезон

Deluxe Edition

pack

Рекомендуем

30

Repack

ВАЖНО

ВАЖНО

Ghostwire

RePack

jed

RePack

fifa19

RePack

RDR2

RePack

NEED FOR SPEED™ PAYBACK

RePack

Кинопоиск HD

 Острые козырьки 6 сезон

6 сезон

FAR CRY 6

RePack

Лицензия

MVO

1

1 сезон

1 сезон

Лицензия

  

Индийские каникулы / India Sweets and Spices (Гита Малик) [2021, Комедия, WEB-DLRip-AVC] DUB [Zone Vision, Локализованная версия] от ExKinoRay

Индийские каникулы через торрент pb.wtf

Раздают: 2 [ 0 KB/s ]
Размер: 1.45 GB | Добавлен: 14 д. назад | Торрент скачан:20 раз
Смотреть онлайн Индийские каникулы | Скачать   

10-09-2022 08:16 Индийские каникулы Скачать торрент  


Индийские каникулы / India Sweets and Spices
Информация о фильме:
Название: Индийские каникулы
Оригинальное название: India Sweets and Spices
Год выхода: 2021
Жанр: Комедия
Режиссер: Гита Малик
В ролях: София Али, Риш Шах, Маниша Коирала, Ашрита Канчарла, Анита Калатара, Адиль Хуссэйн, Дипти Гупта, Рупал Пуджара, Мозес Дас, Томас Каспрович, Кристина Бёрдетт, Ивэн Элиз Оуэнс, Камран Шайх, Анила Куреши, Эмили Таулз, Кортни Паттерсон, Эшли Николь Блейк, Кия Клайнгман, Рашми Рустаги, Вед Сапру, Ароон Найер, Майя Бойд, Рина Шах, Рича Чандра, Ви Бхакта, Прия Дева, Радж Кала, Мелани Киран, Нур Нахми, Анш Наяк, Реа Патил, Бхупеш Кумар Пандья, Альберт Л. Тейлор, Эмметт Фергюсон

Описание: Алия Капур, отучившись год в Калифорнийском университете в Лос-Анджелесе, возвращается в родной Руби-Хилл - элитный городок в Нью-Джерси, в котором обитают все состоятельные индусы в США. Алия готовится к типичному скучному лету: еженедельные приёмы мамы Шейлы с дизайнерскими сари и сплетнями, регулярные партии отца Ранджита в гольф, постоянная ругань младших братьев и сестер, и ежевечернее перемывание костей всем соседям. Но всё идет не по плану, когда Алия знакомится с Варуном Датту - симпатичным молодым человеком и сыном владельцев нового продуктового за углом. Не посоветовавшись с родителями, Алия зовет семейство Датту на ближайшую вечеринку. Этот поступок приводит в ужас всю местную общину и открывает Алие глаза: оказывается, и здесь в США всё ещё в ходу древняя кастовая система.



Страна: США
Студия: Sidney Kimmel Entertainment
Продолжительность: 01:41:00
Перевод: Дублированный - Zone Vision



Информация о файле:
Кодек: AVC
Формат: MKV
Качество: WEB-DLRip-AVC
Видео: MPEG-4 AVC, 1024x552, 23.976 fps, 1620kbps
Аудио RU: AC3, 6 ch, 48 kHz, 448 kbps
Субтитры: Русские (вшитые, на надписи)



x264 info: frame I:1523 Avg QP:15.46 size: 61110
x264 info: frame P:36520 Avg QP:18.61 size: 17484
x264 info: frame B:107252 Avg QP:20.42 size: 4569
General
Unique ID : 165831542301337272513914982635577059773 (0x7CC1FE492F397C5A7C9FB9422B9CA9BD)
Complete name : D:uTorrentРипы wolf1245India Sweets and Spices.2021.DUB.Lacal.Zone.Vision.x264.WEB-DLRip-AVC.[wolf1245.ExKinoRay].mkv
Format : Matroska
Format version : Version 4
File size : 1.45 GiB
Duration : 1 h 41 min
Overall bit rate : 2 062 kb/s
Movie name : India Sweets and Spices.2021.DUB.Lacal.Zone.Vision.x264.WEB-DLRip-AVC.[wolf1245.ExKinoRay]
Encoded date : UTC 2022-09-10 08:01:44
Writing application : mkvmerge v70.0.0 ('Caught A Lite Sneeze') 64-bit
Writing library : libebml v1.4.2 + libmatroska v1.6.4
Video
ID : 1
Format : AVC
Format/Info : Advanced Video Codec
Format profile : [email protected]
Format settings : CABAC / 12 Ref Frames
Format settings, CABAC : Yes
Format settings, Reference frames : 12 frames
Codec ID : V_MPEG4/ISO/AVC
Duration : 1 h 41 min
Bit rate : 1 620 kb/s
Width : 1 024 pixels
Height : 552 pixels
Display aspect ratio : 1.85:1
Frame rate mode : Constant
Frame rate : 23.976 (24000/1001) FPS
Color space : YUV
Chroma subsampling : 4:2:0
Bit depth : 8 bits
Scan type : Progressive
Bits/(Pixel*Frame) : 0.120
Stream size : 1.14 GiB (78%)
Title : -=[wolf1245.ExKinoRay]=-
Writing library : x264 core 163 r3060 5db6aa6
Encoding settings : cabac=1 / ref=12 / deblock=1:-2:-2 / analyse=0x3:0x133 / me=umh / subme=10 / psy=1 / psy_rd=0.98:0.07 / mixed_ref=1 / me_range=32 / chroma_me=1 / trellis=2 / 8x8dct=1 / cqm=0 / deadzone=22,11 / fast_pskip=1 / chroma_qp_offset=-3 / threads=10 / lookahead_threads=2 / sliced_threads=0 / nr=0 / decimate=0 / interlaced=0 / bluray_compat=0 / constrained_intra=0 / bframes=12 / b_pyramid=2 / b_adapt=2 / b_bias=0 / direct=3 / weightb=1 / open_gop=0 / weightp=2 / keyint=240 / keyint_min=24 / scenecut=40 / intra_refresh=0 / rc_lookahead=60 / rc=2pass / mbtree=0 / bitrate=1620 / ratetol=1.0 / qcomp=0.75 / qpmin=0 / qpmax=69 / qpstep=4 / cplxblur=20.0 / qblur=0.5 / vbv_maxrate=50000 / vbv_bufsize=62500 / nal_hrd=none / filler=0 / ip_ratio=1.37 / pb_ratio=1.27 / aq=3:0.90
Default : Yes
Forced : No
Audio
ID : 2
Format : AC-3
Format/Info : Audio Coding 3
Commercial name : Dolby Digital
Codec ID : A_AC3
Duration : 1 h 41 min
Bit rate mode : Constant
Bit rate : 448 kb/s
Channel(s) : 6 channels
Channel layout : L R C LFE Ls Rs
Sampling rate : 48.0 kHz
Frame rate : 31.250 FPS (1536 SPF)
Compression mode : Lossy
Stream size : 324 MiB (22%)
Title : DUB | Zone Vision | RUS
Service kind : Complete Main
Default : Yes
Forced : No
Релиз от:
Автор релиза:



Скачать Индийские каникулы через торрент http://i120.fastpic.org/big/2022/0910/81/caa3b4d34b4f5777105964f224abb181.jpg Скачать, смотреть онлайн Индийские каникулы бесплантно в хорошем качестве Описание: Алия Капур, отучившись год в Калифорнийском университете в Лос-Анджелесе, возвращается в родной Руби-Хилл - элитный городок в ... 10 10 4
Торрент: Зарегистрирован [2022-09-10 08:16] · скачан: 20 раз
Статус: √ проверено
Размер: 1.45 GB
Как cкачать? Как скачать Индийские каникулы через торрент | UTorrent

28-11-2019 20:33  

Отключить вcю реклaмy на сайте

    Дорогой пользователь! Огромная просьба, поблагодарите релизера, оцените раздачу и оставьте свои комментарий, если Вы скачали Индийские каникулы через торрент бесплатно!!
    Комментировать посты могут только пользователи прошедшие не сложную регистрацию
    Показать сообщения:    


    Индийские каникулы через торрент
    Скачать бесплатно Индийские каникулы
    Индийские каникулы скачать торрент
    Индийские каникулы смотреть онлайн
    Cкачать фильм Индийские каникулы бесплатно
    Индийские каникулы скачать торрент в хорошем качестве
    Индийские каникулы смотреть онлайн бесплатно в хорошем качестве
    Вы не можете начинать темы
    Вы не можете отвечать на сообщения
    Вы не можете редактировать свои сообщения
    Вы не можете удалять свои сообщения
    Вы не можете голосовать в опросах
    Вы не можете прикреплять файлы к сообщениям
    Вы можете скачивать файлы