Доктор Стрэндж

Лицензия

Добыча

Дубляж

Дом дракона

1 сезон

Тор

Дубляж

В эфире

Дубляж

Там, где раки поют

MVO

Властелин колец

1 сезон

Deluxe

pack

Рекомендуем

30

Пиратка

ВАЖНО

ВАЖНО

Ghostwire

Пиратка

jed

RePack

nioh2

RePack

RDR2

RePack

NEED FOR SPEED™ PAYBACK

RePack

скачать торрент

Кинопоиск HD

Острые козырьки 6 сезон

6 сезон

FAR CRY 6

RePack

скачать торрент

Лицензия

скачать торрент

MVO

1

1 сезон

скачать торрент

1 сезон

скачать торрент

Лицензия

  

Зверь / Beast (Бальтасар Кормакур) [2022, Ужасы, триллер, драма, приключения, BDRip 1080p] Дубляж [Bravo Records Georgia] +2xMVO [Jaskier, TVShows]

Зверь через торрент pb.wtf

Раздают: 6 [ 31 KB/s ] Качают: 1 [ 0 KB/s ]
Размер: 13.88 GB | Добавлен: 11 д. назад | Торрент скачан:70 раз
Смотреть онлайн | Скачать   

11-09-2022 03:05 Зверь Скачать торрент  

Зверь
Beast

Год выпуска: 2022
Страна: США
Студия: Universal Pictures, RVK Studios, Will Packer Productions
Жанр: Ужасы, триллер, драма, приключения
Продолжительность: 01:32:47
Перевод:
Дублированный | Bravo Records Georgia
Профессиональный (многоголосый) | Jaskier
Профессиональный (многоголосый) | TVShows
Субтитры: русские (Forced, Full), английские (Forced, Full, SDH)

Режиссер: Бальтасар Кормакур

rating

В ролях: Идрис Эльба, Шарлто Копли, Ияна Хэлли, Леа Джеффрис, Мелани Джарнсон, Анзор Алем, Билли Галлахер, Дориан Хеджвуд, Кейт Грисли, Трэвис Лемрик

Описание: После смерти жены доктор Нэйт Дэниелс возвращается в Южную Африку, где они познакомились. Вместе с дочерьми он направляется в заповедник, которым управляет давний друг семьи Мартин Баттлс. Однако семейная поездка оборачивается опасным приключением, в котором Нэйту придется вступить в противостояние со свирепым львом.

Качество: BDRip 1080p
Формат: MKV

Видео: AVC, 1920x804 (2, 40:1), 19380 kbps, 23, 976 fps
Аудио №1: 48 kHz, AC3, 5.1, 384 kbps | Дубляж
Аудио №2: 48 kHz, AC3, 5.1, 448 kbps | Jaskier
Аудио №3: 48 kHz, AC3, 2.0, 192 kbps | TVShows
Аудио №4: 48 kHz, E-AC3, 7.1, 1024 kbps | ENG
скриншот  скриншот  скриншот  скриншот  скриншот  скриншот  

Общее
Уникальный идентификатор : 28922141914187257461910893686149874571 (0x15C233B0D25B0312C34C76F657D0038B)
Полное имя : D:Beast.2022.BDRip.1080p.3xRus.Eng.ExKinoRay.mkv
Формат : Matroska
Версия формата : Version 4
Размер файла : 13,9 Гбайт
Продолжительность : 1 ч. 32 м.
Общий поток : 21,4 Мбит/сек
Название фильма : Beast (2022)
Дата кодирования : UTC 2022-11-21 06:10:39
Программа кодирования : mkvmerge v62.0.0 ('Apollo') 64-bit
Библиотека кодирования : libebml v1.4.2 + libmatroska v1.6.4

Видео
Идентификатор : 1
Формат : AVC
Формат/Информация : Advanced Video Codec
Профиль формата : [email protected]
Настройки формата : CABAC / 5 Ref Frames
Параметр CABAC формата : Да
Параметр RefFrames формата : 5 кадров
Идентификатор кодека : V_MPEG4/ISO/AVC
Продолжительность : 1 ч. 32 м.
Битрейт : 19,4 Мбит/сек
Ширина : 1 920 пикселей
Высота : 804 пикселя
Соотношение сторон : 2,40:1
Режим частоты кадров : Постоянный
Частота кадров : 23,976 (24000/1001) кадра/сек
Цветовое пространство : YUV
Субдискретизация насыщенности : 4:2:0
Битовая глубина : 8 бит
Тип развёртки : Прогрессивная
Бит/(Пиксели*Кадры) : 0.524
Размер потока : 12,3 Гбайт (88%)
Заголовок : potroks
Библиотека кодирования : x264 core 163 r3060 5db6aa6
Настройки программы : cabac=1 / ref=5 / deblock=1:-3:-3 / analyse=0x3:0x113 / me=umh / subme=11 / psy=1 / psy_rd=0.96:0.00 / mixed_ref=1 / me_range=32 / chroma_me=0 / trellis=2 / 8x8dct=1 / cqm=0 / deadzone=21,11 / fast_pskip=0 / chroma_qp_offset=-2 / threads=19 / lookahead_threads=4 / sliced_threads=0 / nr=0 / decimate=1 / interlaced=0 / bluray_compat=0 / constrained_intra=0 / bframes=10 / b_pyramid=2 / b_adapt=2 / b_bias=0 / direct=0 / weightb=1 / open_gop=0 / weightp=2 / keyint=240 / keyint_min=23 / scenecut=40 / intra_refresh=0 / rc_lookahead=100 / rc=2pass / mbtree=0 / bitrate=19380 / ratetol=1.0 / qcomp=0.70 / qpmin=0 / qpmax=69 / qpstep=5 / cplxblur=20.0 / qblur=0.5 / vbv_maxrate=50000 / vbv_bufsize=62500 / nal_hrd=none / filler=0 / ip_ratio=1.35 / pb_ratio=1.25 / aq=1:0.80
Язык : English
Default : Да
Forced : Нет

Аудио #1
Идентификатор : 2
Формат : AC-3
Формат/Информация : Audio Coding 3
Коммерческое название : Dolby Digital
Идентификатор кодека : A_AC3
Продолжительность : 1 ч. 32 м.
Вид битрейта : Постоянный
Битрейт : 384 Кбит/сек
Каналы : 6 каналов
Channel layout : L R C LFE Ls Rs
Частота : 48,0 КГц
Частота кадров : 31,250 кадров/сек (1536 SPF)
Метод сжатия : С потерями
Размер потока : 255 Мбайт (2%)
Заголовок : Дубляж | DD 5.1 @ 384 kbps - BRG
Язык : Russian
Service kind : Complete Main
Default : Да
Forced : Нет

Аудио #2
Идентификатор : 3
Формат : AC-3
Формат/Информация : Audio Coding 3
Коммерческое название : Dolby Digital
Идентификатор кодека : A_AC3
Продолжительность : 1 ч. 32 м.
Вид битрейта : Постоянный
Битрейт : 448 Кбит/сек
Каналы : 6 каналов
Channel layout : L R C LFE Ls Rs
Частота : 48,0 КГц
Частота кадров : 31,250 кадров/сек (1536 SPF)
Метод сжатия : С потерями
Размер потока : 297 Мбайт (2%)
Заголовок : MVO | DD 5.1 @ 448 kbps - Jaskier
Язык : Russian
Service kind : Complete Main
Default : Нет
Forced : Нет

Аудио #3
Идентификатор : 4
Формат : AC-3
Формат/Информация : Audio Coding 3
Коммерческое название : Dolby Digital
Идентификатор кодека : A_AC3
Продолжительность : 1 ч. 32 м.
Вид битрейта : Постоянный
Битрейт : 192 Кбит/сек
Каналы : 2 канала
Channel layout : L R
Частота : 48,0 КГц
Частота кадров : 31,250 кадров/сек (1536 SPF)
Метод сжатия : С потерями
Размер потока : 127 Мбайт (1%)
Заголовок : MVO | DD 2.0 @ 192 kbps - TVShows
Язык : Russian
Service kind : Complete Main
Default : Нет
Forced : Нет

Аудио #4
Идентификатор : 5
Формат : E-AC-3
Формат/Информация : Enhanced AC-3
Коммерческое название : Dolby Digital Plus
Настройки формата : Dolby Surround EX
Идентификатор кодека : A_EAC3
Продолжительность : 1 ч. 32 м.
Вид битрейта : Постоянный
Битрейт : 1 024 Кбит/сек
Каналы : 8 каналов
Channel layout : L R C LFE Ls Rs Lb Rb
Частота : 48,0 КГц
Частота кадров : 31,250 кадров/сек (1536 SPF)
Метод сжатия : С потерями
Размер потока : 680 Мбайт (5%)
Заголовок : Original | DD+ 7.1 @ 1024 kbps
Язык : English
Service kind : Complete Main
Default : Нет
Forced : Нет

Текст #1
Идентификатор : 6
Формат : UTF-8
Идентификатор кодека : S_TEXT/UTF8
Идентификатор кодека/Информация : UTF-8 Plain Text
Заголовок : Forced
Язык : Russian
Default : Нет
Forced : Да

Текст #2
Идентификатор : 7
Формат : UTF-8
Идентификатор кодека : S_TEXT/UTF8
Идентификатор кодека/Информация : UTF-8 Plain Text
Заголовок : Full
Язык : Russian
Default : Нет
Forced : Нет

Текст #3
Идентификатор : 8
Формат : UTF-8
Идентификатор кодека : S_TEXT/UTF8
Идентификатор кодека/Информация : UTF-8 Plain Text
Заголовок : Forced
Язык : English
Default : Нет
Forced : Да

Текст #4
Идентификатор : 9
Формат : UTF-8
Идентификатор кодека : S_TEXT/UTF8
Идентификатор кодека/Информация : UTF-8 Plain Text
Заголовок : Full
Язык : English
Default : Нет
Forced : Нет

Текст #5
Идентификатор : 10
Формат : UTF-8
Идентификатор кодека : S_TEXT/UTF8
Идентификатор кодека/Информация : UTF-8 Plain Text
Заголовок : SDH
Язык : English
Default : Нет
Forced : Нет

Меню
00:00:00.000 : :Глава 1
00:04:22.553 : :Глава 2
00:10:36.218 : :Глава 3
00:16:40.666 : :Глава 4
00:19:03.559 : :Глава 5
00:24:45.609 : :Глава 6
00:29:19.424 : :Глава 7
00:34:08.671 : :Глава 8
00:37:30.748 : :Глава 9
00:43:29.356 : :Глава 10
00:50:48.879 : :Глава 11
00:55:12.809 : :Глава 12
00:57:59.142 : :Глава 13
01:05:23.210 : :Глава 14
01:09:00.970 : :Глава 15
01:13:09.843 : :Глава 16
01:18:59.234 : :Глава 17
01:22:24.689 : :Глава 18
01:24:36.738 : :Глава 19
01:27:14.187 : :Глава 20
01:32:46.185 : :Глава 21




Скачать Зверь через торрент https://i2-imageban-ru.translate.goog/out/2022/10/06/45c9ef49012ed8ca6e9228644591467e.png Скачать, смотреть онлайн Зверь бесплантно в хорошем качестве Описание: После смерти жены доктор Нэйт Дэниелс возвращается в Южную Африку, где они познакомились. Вместе с дочерьми он направляется в ... 9.1 10 10
Торрент: Зарегистрирован [2022-11-21 19:41] · скачан: 70 раз
Статус: √ проверено
Размер: 13.88 GB
Как cкачать? Как скачать Зверь через торрент | UTorrent

% Раздел Тема Автор DL S | L
Фильмы (Blu-ray, BD-Remux, HDDVD) [ 24.53 GB ] Зверь / Beast | Jaskier | BD Remux 1080p bober100 Скачать
3 | 0
Фильмы 2022 [DVDrip, WEB-DLRip, HDrip] (DUB, MVO) [ 1.46 GB ] Зверь / Beast | DUB | BDRip bober100 Скачать
17 | 0
Фильмы 2022 [DVDrip, WEB-DLRip, HDrip] (DUB, MVO) [ 747 MB ] Зверь / Beast | DUB | BDRip bober100 Скачать
2 | 0
Фильмы 2022 [DVDrip, WEB-DLRip, HDrip] (DUB, MVO) [ 2.02 GB ] Зверь / Beast | Jaskier | DLRip-AVC Lithuania Скачать
6 | 0
Фильмы 2022 [DVDrip, WEB-DLRip, HDrip] (DUB, MVO) [ 1.46 GB ] Зверь / Beast | Jaskier | DLRip bober100 Скачать
8 | 0
Фильмы 2022 [DVDrip, WEB-DLRip, HDrip] (DUB, MVO) [ 1.88 GB ] Зверь / Beast | Jaskier | DLRip-AVC bober100 Скачать
2 | 0
Фильмы (WEB-DL 720p, 1080p) [ 3.34 GB ] Зверь / Beast | Jaskier | 720p bober100 Скачать
7 | 0



Последний раз редактировалось: bober100 (2022-11-22 04:05), всего редактировалось 4 раз(а)

28-11-2019 20:33  


Отключить вcю реклaмy на сайте, в т.ч. и в плеере онлайн просмотра!

13-09-2022 14:31 Зверь Скачать торрент  

По прозвищу Дверь. Дверь Овертона...



    Дорогой пользователь! Огромная просьба, поблагодарите релизера, оцените раздачу и оставьте свои комментарий, если Вы скачали Зверь через торрент бесплатно!!
    Комментировать посты могут только пользователи прошедшие не сложную регистрацию
    Показать сообщения:    


    Зверь через торрент
    Скачать бесплатно Зверь
    Зверь скачать торрент
    Зверь смотреть онлайн
    Cкачать фильм Зверь бесплатно
    Зверь скачать торрент в хорошем качестве
    Зверь смотреть онлайн бесплатно в хорошем качестве
    Вы не можете начинать темы
    Вы не можете отвечать на сообщения
    Вы не можете редактировать свои сообщения
    Вы не можете удалять свои сообщения
    Вы не можете голосовать в опросах
    Вы не можете прикреплять файлы к сообщениям
    Вы можете скачивать файлы
    Зверь / Beast [2022, Ужасы, триллер, драма, приключения, BDRip 1080p] Дубляж [Bravo Records Georgia] +2xMVO [Jaskier, TVShows] смотреть онлайн, скачать торрент picoco.icu