Доктор Стрэндж

Лицензия

Добыча

Дубляж

Дом дракона

1 сезон

Тор

Дубляж

В эфире

Дубляж

Там, где раки поют

MVO

Властелин колец

1 сезон

Ultimate

pack

Рекомендуем

30

Пиратка

ВАЖНО

ВАЖНО

Ghostwire

Пиратка

jed

RePack

nioh2

RePack

RDR2

RePack

NEED FOR SPEED™ PAYBACK

RePack

скачать торрент

Кинопоиск HD

Острые козырьки 6 сезон

6 сезон

FAR CRY 6

RePack

скачать торрент

Лицензия

скачать торрент

MVO

1

1 сезон

скачать торрент

1 сезон

скачать торрент

Лицензия

  

Зверь / Beast (Бальтасар Кормакур) [2022, Ужасы, триллер, драма, приключения, UHD WEB-DL-HEVC 2160p] MVO [Jaskier]

Зверь через торрент pb.wtf

Раздают: 1 [ 0 KB/s ]
Размер: 16.43 GB | Добавлен: 2 мес. 17 д. назад | Торрент скачан:121 раз
Смотреть онлайн | Скачать   

11-09-2022 03:13 Зверь Скачать торрент  

Зверь
Beast

Год выпуска: 2022
Страна: США
Студия: Universal Pictures, RVK Studios, Will Packer Productions
Жанр: Ужасы, триллер, драма, приключения
Продолжительность: 01:32:47
Перевод: Профессиональный (многоголосый) | Jaskier
Субтитры: Aнглийские

Режиссер: Бальтасар Кормакур

rating

В ролях: Идрис Эльба, Шарлто Копли, Ияна Хэлли, Леа Джеффрис, Мелани Джарнсон, Анзор Алем, Билли Галлахер, Дориан Хеджвуд, Кейт Грисли, Трэвис Лемрик

Описание: Доктор Нэйт Дэниелс после смерти жены возвращается в Южную Африку, где они познакомились. Вместе с дочерьми он направляется в заповедник, которым управляет давний друг семьи Мартин Баттлс. Однако семейная поездка оборачивается опасным приключением, в котором Нэйту придется бороться за выживание со свирепым львом.

Качество: UHD WEB-DL-HEVC 2160p
Формат: MKV

Видео: 3840x2160 at 23.976 fps, MPEG-H HEVC HDR ~ 24300 kbps avg
Аудио #01: 48 kHz, AC3, 5.1, 448 Kbps | Профессиональный многоголосый | Jaskier | RUS |
Аудио #02: 48 kHz, E-AC3, 5.1, 640 Kbps | Оригинал | ENG |
скриншот  скриншот  скриншот  скриншот  скриншот  скриншот  

General
Unique ID: 181662961521138048019749606910752809647 (0x88AB038454C411146A1EBA85E10562AF)
Complete name: F:VideoBeast.2022.WEB-DL.2160p.HDR.seleZen.mkv
Format: Matroska
Format version: Version 4
File size: 16.4 GiB
Duration: 1 h 32 min
Overall bit rate: 25.3 Mb/s
Movie name: Beast 2022 from seleZen
Encoded date: UTC 2022-09-10 23:29:02
Writing application: mkvmerge v59.0.0 ('Shining Star') 64-bit
Writing library: libebml v1.4.2 + libmatroska v1.6.4

Video
ID: 1
Format: HEVC
Format/Info: High Efficiency Video Coding
Format profile: Main [email protected]@High
HDR format: SMPTE ST 2086, HDR10 compatible
Codec ID: V_MPEGH/ISO/HEVC
Duration: 1 h 32 min
Bit rate: 24.3 Mb/s
Width: 3 840 pixels
Height: 2 160 pixels
Display aspect ratio: 16:9
Frame rate mode: Constant
Frame rate: 23.976 (24000/1001) FPS
Color space: YUV
Chroma subsampling: 4:2:0 (Type 2)
Bit depth: 10 bits
Bits/(Pixel*Frame): 0.122
Stream size: 15.7 GiB (96%)
Language: English
Default: Yes
Forced: No
Color range: Limited
Color primaries: BT.2020
Transfer characteristics: PQ
Matrix coefficients: BT.2020 non-constant
Mastering display color pri: BT.2020
Mastering display luminance: min: 0.0050 cd/m2, max: 1000 cd/m2
Maximum Content Light Level: 485 cd/m2
Maximum Frame-Average Light: 62 cd/m2

Audio #1
ID: 2
Format: AC-3
Format/Info: Audio Coding 3
Commercial name: Dolby Digital
Codec ID: A_AC3
Duration: 1 h 32 min
Bit rate mode: Constant
Bit rate: 448 kb/s
Channel(s): 6 channels
Channel layout: L R C LFE Ls Rs
Sampling rate: 48.0 kHz
Frame rate: 31.250 FPS (1536 SPF)
Compression mode: Lossy
Stream size: 298 MiB (2%)
Title: MVO [Jaskier]
Language: Russian
Service kind: Complete Main
Default: Yes
Forced: Yes

Audio #2
ID: 3
Format: E-AC-3
Format/Info: Enhanced AC-3
Commercial name: Dolby Digital Plus
Codec ID: A_EAC3
Duration: 1 h 32 min
Bit rate mode: Constant
Bit rate: 640 kb/s
Channel(s): 6 channels
Channel layout: L R C LFE Ls Rs
Sampling rate: 48.0 kHz
Frame rate: 31.250 FPS (1536 SPF)
Compression mode: Lossy
Stream size: 425 MiB (3%)
Title: Original
Language: English
Service kind: Complete Main
Default: No
Forced: No

Text #1
ID: 4
Format: UTF-8
Codec ID: S_TEXT/UTF8
Codec ID/Info: UTF-8 Plain Text
Duration: 24 min 46 s
Bit rate: 2 b/s
Frame rate: 0.018 FPS
Count of elements: 27
Stream size: 495 Bytes (0%)
Title: Forced
Language: English
Default: No
Forced: No

Text #2
ID: 5
Format: UTF-8
Codec ID: S_TEXT/UTF8
Codec ID/Info: UTF-8 Plain Text
Duration: 1 h 32 min
Bit rate: 86 b/s
Frame rate: 0.363 FPS
Count of elements: 2022
Stream size: 59.0 KiB (0%)
Title: Full
Language: English
Default: No
Forced: No




Скачать Зверь через торрент https://i120.fastpic.org/big/2022/0911/fa/b478f3bbdbfa953a39e7b06b173e7efa.jpg Скачать, смотреть онлайн Зверь бесплантно в хорошем качестве Описание: Доктор Нэйт Дэниелс после смерти жены возвращается в Южную Африку, где они познакомились. Вместе с дочерьми он направляется в ... 9.6 10 5
Info! Золотая раздача, скачанное не засчитывается.
Торрент: Зарегистрирован [2022-09-11 03:13] · скачан: 121 раз
Статус: √ проверено
Размер: 16.43 GB
Как cкачать? Как скачать Зверь через торрент | UTorrent

% Раздел Тема Автор DL S | L
Фильмы (Blu-ray, BD-Remux, HDDVD) [ 24.53 GB ] Зверь / Beast | Jaskier | BD Remux 1080p bober100 Скачать
5 | 1
Фильмы 2022 [DVDrip, WEB-DLRip, HDrip] (DUB, MVO) [ 1.46 GB ] Зверь / Beast | DUB | BDRip bober100 Скачать
13 | 2
Фильмы 2022 [DVDrip, WEB-DLRip, HDrip] (DUB, MVO) [ 747 MB ] Зверь / Beast | DUB | BDRip bober100 Скачать
1 | 0
Фильмы 2022 [DVDrip, WEB-DLRip, HDrip] (DUB, MVO) [ 2.02 GB ] Зверь / Beast | Jaskier | DLRip-AVC Lithuania Скачать
9 | 0
Фильмы 2022 [DVDrip, WEB-DLRip, HDrip] (DUB, MVO) [ 1.46 GB ] Зверь / Beast | Jaskier | DLRip bober100 Скачать
6 | 0
Фильмы [HD 720p, 1080p] (Хороший звук DUB, MVO) [ 13.88 GB ] Зверь / Beast | Jaskier | 1080p bober100 Скачать
15 | 2
Фильмы 2022 [DVDrip, WEB-DLRip, HDrip] (DUB, MVO) [ 1.88 GB ] Зверь / Beast | Jaskier | DLRip-AVC bober100 Скачать
1 | 0

28-11-2019 20:33  


Отключить вcю реклaмy на сайте, в т.ч. и в плеере онлайн просмотра!

    Дорогой пользователь! Огромная просьба, поблагодарите релизера, оцените раздачу и оставьте свои комментарий, если Вы скачали Зверь через торрент бесплатно!!
    Комментировать посты могут только пользователи прошедшие не сложную регистрацию
    Показать сообщения:    


    Зверь через торрент
    Скачать бесплатно Зверь
    Зверь скачать торрент
    Зверь смотреть онлайн
    Cкачать фильм Зверь бесплатно
    Зверь скачать торрент в хорошем качестве
    Зверь смотреть онлайн бесплатно в хорошем качестве
    Вы не можете начинать темы
    Вы не можете отвечать на сообщения
    Вы не можете редактировать свои сообщения
    Вы не можете удалять свои сообщения
    Вы не можете голосовать в опросах
    Вы не можете прикреплять файлы к сообщениям
    Вы можете скачивать файлы
    Зверь / Beast [2022, Ужасы, триллер, драма, приключения, UHD WEB-DL-HEVC 2160p] MVO [Jaskier] смотреть онлайн, скачать торрент picoco.icu