Доктор Стрэндж

Лицензия

Добыча

Дубляж

Дом дракона

1 сезон

Тор

Дубляж

В эфире

Дубляж

Там, где раки поют

MVO

Властелин колец

1 сезон

Ultimate

pack

Рекомендуем

30

Пиратка

ВАЖНО

ВАЖНО

Ghostwire

Пиратка

jed

RePack

nioh2

RePack

RDR2

RePack

NEED FOR SPEED™ PAYBACK

RePack

скачать торрент

Кинопоиск HD

Острые козырьки 6 сезон

6 сезон

FAR CRY 6

RePack

скачать торрент

Лицензия

скачать торрент

MVO

1

1 сезон

скачать торрент

1 сезон

скачать торрент

Лицензия

  

Пиноккио / Pinocchio (Роберт Земекис) [2022, Мюзикл, фэнтези, драма, комедия, приключения, семейный, UHD WEB-DL-HEVC 2160p] MVO [Jaskier]

Пиноккио через торрент pb.wtf

Раздают: 2 [ 359 KB/s ]
Размер: 10.46 GB | Добавлен: 2 мес. 17 д. назад | Торрент скачан:124 раза
Смотреть онлайн | Скачать   

11-09-2022 03:25 Пиноккио Скачать торрент  

Пиноккио
Pinocchio

Год выпуска: 2022
Страна: США
Студия: Depth of Field, ImageMovers, Walt Disney Pictures
Жанр: Мюзикл, фэнтези, драма, комедия, приключения, семейный
Продолжительность: 01:45:08
Перевод: Профессиональный (многоголосый) | Jaskier
Субтитры: Aнглийские

Режиссер: Роберт Земекис

rating

В ролях: Том Хэнкс, Люк Эванс, Синтиа Эриво, Джозеф Гордон-Левитт, Шила Атим, Лоррейн Бракко, Кигэн-Майкл Ки, Бенджамин Эван Эйнсуорт, Ханна Флинн, Латойя Хардинг

Описание: Игровая версия классического диснеевского мультфильма о деревянном мальчике Пиноккио от режиссера Роберта Земекиса.

Качество: UHD WEB-DL-HEVC 2160p
Формат: MKV

Видео: 3840x2160 at 24.000 fps, MPEG-H HEVC HDR ~ 13100 kbps avg
Аудио #01: 48 kHz, AC3, 5.1, 384 Kbps | Профессиональный многоголосый | Jaskier | RUS |
Аудио #02: 48 kHz, E-AC3+Atmos, 5.1, 768 Kbps | Оригинал | ENG |
скриншот  скриншот  скриншот  скриншот  скриншот  скриншот  

General
Unique ID: 246887109737801063995861648964495364784 (0xB9BCBA4E00A8D91042B409C04DE052B0)
Complete name: F:VideoPinocchio.2022.WEB-DL.2160p.HDR.seleZen.mkv
Format: Matroska
Format version: Version 4
File size: 10.5 GiB
Duration: 1 h 45 min
Overall bit rate: 14.2 Mb/s
Movie name: Pinocchio 2022 from seleZen
Encoded date: UTC 2022-09-10 22:34:25
Writing application: mkvmerge v59.0.0 ('Shining Star') 64-bit
Writing library: libebml v1.4.2 + libmatroska v1.6.4

Video
ID: 1
Format: HEVC
Format/Info: High Efficiency Video Coding
Format profile: Main [email protected]@High
HDR format: SMPTE ST 2086, HDR10 compatible
Codec ID: V_MPEGH/ISO/HEVC
Duration: 1 h 45 min
Bit rate: 13.1 Mb/s
Width: 3 840 pixels
Height: 2 160 pixels
Display aspect ratio: 16:9
Frame rate mode: Constant
Frame rate: 24.000 FPS
Color space: YUV
Chroma subsampling: 4:2:0
Bit depth: 10 bits
Bits/(Pixel*Frame): 0.066
Stream size: 9.61 GiB (92%)
Language: English
Default: Yes
Forced: No
Color range: Limited
Color primaries: BT.2020
Transfer characteristics: PQ
Matrix coefficients: BT.2020 non-constant
Mastering display color pri: BT.2020
Mastering display luminance: min: 0.0000 cd/m2, max: 1000 cd/m2

Audio #1
ID: 2
Format: AC-3
Format/Info: Audio Coding 3
Commercial name: Dolby Digital
Codec ID: A_AC3
Duration: 1 h 45 min
Bit rate mode: Constant
Bit rate: 384 kb/s
Channel(s): 6 channels
Channel layout: L R C LFE Ls Rs
Sampling rate: 48.0 kHz
Frame rate: 31.250 FPS (1536 SPF)
Compression mode: Lossy
Stream size: 289 MiB (3%)
Title: MVO [Jaskier]
Language: Russian
Service kind: Complete Main
Default: Yes
Forced: Yes

Audio #2
ID: 3
Format: E-AC-3 JOC
Format/Info: Enhanced AC-3 with Joint Object Coding
Commercial name: Dolby Digital Plus with Dolby Atmos
Codec ID: A_EAC3
Duration: 1 h 45 min
Bit rate mode: Constant
Bit rate: 768 kb/s
Channel(s): 6 channels
Channel layout: L R C LFE Ls Rs
Sampling rate: 48.0 kHz
Frame rate: 31.250 FPS (1536 SPF)
Compression mode: Lossy
Stream size: 578 MiB (5%)
Title: Original
Language: English
Service kind: Complete Main
Default: No
Forced: No
Complexity index: 16
Number of dynamic objects: 15
Bed channel count: 1 channel
Bed channel configuration: LFE

Text
ID: 4
Format: UTF-8
Codec ID: S_TEXT/UTF8
Codec ID/Info: UTF-8 Plain Text
Duration: 1 h 38 min
Bit rate: 71 b/s
Frame rate: 0.265 FPS
Count of elements: 1564
Stream size: 51.5 KiB (0%)
Title: SDH
Language: English
Default: No
Forced: No




Скачать Пиноккио через торрент https://i120.fastpic.org/big/2022/0911/00/86b44cedc6e2977c21825a60b9246c00.jpg Скачать, смотреть онлайн Пиноккио бесплантно в хорошем качестве Описание: Игровая классического диснеевского мультфильма о деревянном мальчике Пиноккио от режиссера Роберта ... 10 10 5
Торрент: Зарегистрирован [2022-09-11 03:25] · скачан: 124 раз
Статус: √ проверено
Размер: 10.46 GB
Как cкачать? Как скачать Пиноккио через торрент | UTorrent

% Раздел Тема Автор DL S | L
Фильмы (WEB-DL 720p, 1080p) [ 5.58 GB ] Пиноккио / Pinocchio | DUB | 1080p bober100 Скачать
6 | 0
Фильмы 2022 [DVDrip, WEB-DLRip, HDrip] (DUB, MVO) [ 1.46 GB ] Пиноккио / Pinocchio | Jaskier | DLRip bober100 Скачать
21 | 0
Фильмы 2022 [DVDrip, WEB-DLRip, HDrip] (DUB, MVO) [ 2.07 GB ] Пиноккио / Pinocchio | Jaskier | DLRip-AVC bober100 Скачать
11 | 0
Фильмы (WEB-DL 720p, 1080p) [ 5.95 GB ] Пиноккио / Pinocchio | Jaskier | 1080p bober100 Скачать
8 | 0

28-11-2019 20:33  


Отключить вcю реклaмy на сайте, в т.ч. и в плеере онлайн просмотра!

    Дорогой пользователь! Огромная просьба, поблагодарите релизера, оцените раздачу и оставьте свои комментарий, если Вы скачали Пиноккио через торрент бесплатно!!
    Комментировать посты могут только пользователи прошедшие не сложную регистрацию
    Показать сообщения:    


    Пиноккио через торрент
    Скачать бесплатно Пиноккио
    Пиноккио скачать торрент
    Пиноккио смотреть онлайн
    Cкачать фильм Пиноккио бесплатно
    Пиноккио скачать торрент в хорошем качестве
    Пиноккио смотреть онлайн бесплатно в хорошем качестве
    Вы не можете начинать темы
    Вы не можете отвечать на сообщения
    Вы не можете редактировать свои сообщения
    Вы не можете удалять свои сообщения
    Вы не можете голосовать в опросах
    Вы не можете прикреплять файлы к сообщениям
    Вы можете скачивать файлы
    Пиноккио / Pinocchio [2022, Мюзикл, фэнтези, драма, комедия, приключения, семейный, UHD WEB-DL-HEVC 2160p] MVO [Jaskier] смотреть онлайн, скачать торрент picoco.icu