Доктор Стрэндж

Лицензия

Добыча

Дубляж

Уэнсдэй

1 сезон

Тор

Дубляж

В эфире

Дубляж

Там, где раки поют

MVO

Властелин колец

1 сезон

Deluxe

pack

Рекомендуем

30

Пиратка

ВАЖНО

ВАЖНО

Ghostwire

Пиратка

jed

RePack

nioh2

RePack

RDR2

RePack

NEED FOR SPEED™ PAYBACK

RePack

скачать торрент

Кинопоиск HD

Острые козырьки 6 сезон

6 сезон

FAR CRY 6

RePack

скачать торрент

Лицензия

скачать торрент

MVO

1

1 сезон

скачать торрент

1 сезон

скачать торрент

Лицензия

  

Зверь / Beast (Бальтасар Кормакур) [2022, Ужасы, триллер, драма, приключения, WEB-DL 720p] MVO [Jaskier]

Зверь через торрент pb.wtf

Раздают: 1 [ 0 KB/s ] Качают: 1 [ 0 KB/s ]
Размер: 3.34 GB | Добавлен: 2 мес. 23 д. назад | Торрент скачан:186 раз
Смотреть онлайн | Скачать   

11-09-2022 03:38 Зверь Скачать торрент  

Зверь
Beast

Год выпуска: 2022
Страна: США
Студия: Universal Pictures, RVK Studios, Will Packer Productions
Жанр: Ужасы, триллер, драма, приключения
Продолжительность: 01:32:47
Перевод: Профессиональный (многоголосый) | Jaskier
Субтитры: Aнглийские, испанские

Режиссер: Бальтасар Кормакур

rating

В ролях: Идрис Эльба, Шарлто Копли, Ияна Хэлли, Леа Джеффрис, Мелани Джарнсон, Анзор Алем, Билли Галлахер, Дориан Хеджвуд, Кейт Грисли, Трэвис Лемрик

Описание: Доктор Нэйт Дэниелс после смерти жены возвращается в Южную Африку, где они познакомились. Вместе с дочерьми он направляется в заповедник, которым управляет давний друг семьи Мартин Баттлс. Однако семейная поездка оборачивается опасным приключением, в котором Нэйту придется бороться за выживание со свирепым львом.

Качество: WEB-DL 720p
Формат: MKV

Видео: MPEG-4 AVC, 1280x720 at 23.976 fps, [email protected], ~4000 kbps
Аудио #01: 48 kHz, AC3, 5.1, 448 Kbps | Профессиональный многоголосый | Jaskier | RUS |
Аудио #02: 48 kHz, E-AC3, 5.1, 640 Kbps | Оригинал | ENG |
скриншот  скриншот  скриншот  скриншот  

General
Unique ID : 73599429742833892329799852948180859715 (0x375EBC0C54B6DCF8FCC9839F26E27B43)
Complete name : D:Beast.2022.WEB-DL.720p.x264.seleZen.mkv
Format : Matroska
Format version : Version 4
File size : 3.34 GiB
Duration : 1 h 32 min
Overall bit rate : 5 143 kb/s
Movie name : Beast.2022.WEB-DL.720p.x264.seleZen
Encoded date : UTC 2022-09-10 23:35:44
Writing application : mkvmerge v70.0.0 ('Caught A Lite Sneeze') 64-bit
Writing library : libebml v1.4.2 + libmatroska v1.6.4
Cover : Yes
Attachments : cover.jpg / small_cover.jpg

Video
ID : 1
Format : AVC
Format/Info : Advanced Video Codec
Format profile : [email protected]
Format settings : CABAC / 8 Ref Frames
Format settings, CABAC : Yes
Format settings, Reference : 8 frames
Codec ID : V_MPEG4/ISO/AVC
Duration : 1 h 32 min
Bit rate : 4 000 kb/s
Width : 1 280 pixels
Height : 720 pixels
Display aspect ratio : 16:9
Frame rate mode : Constant
Frame rate : 23.976 (24000/1001) FPS
Color space : YUV
Chroma subsampling : 4:2:0
Bit depth : 8 bits
Scan type : Progressive
Bits/(Pixel*Frame) : 0.181
Stream size : 2.55 GiB (76%)
Writing library : x264 core 164 r3094 bfc87b7
Encoding settings : cabac=1 / ref=8 / deblock=1:-1:-1 / analyse=0x3:0x133 / me=umh / subme=9 / psy=1 / psy_rd=1.00:0.15 / mixed_ref=1 / me_range=16 / chroma_me=1 / trellis=2 / 8x8dct=1 / cqm=0 / deadzone=21,11 / fast_pskip=1 / chroma_qp_offset=-3 / threads=8 / lookahead_threads=1 / sliced_threads=0 / nr=0 / decimate=1 / interlaced=0 / bluray_compat=0 / stitchable=1 / constrained_intra=0 / bframes=3 / b_pyramid=2 / b_adapt=2 / b_bias=0 / direct=3 / weightb=1 / open_gop=0 / weightp=2 / keyint=48 / keyint_min=4 / scenecut=0 / intra_refresh=0 / rc_lookahead=48 / rc=abr / mbtree=1 / bitrate=4000 / ratetol=1.0 / qcomp=0.60 / qpmin=0 / qpmax=69 / qpstep=4 / vbv_maxrate=4400 / vbv_bufsize=8000 / nal_hrd=none / filler=0 / ip_ratio=1.40 / aq=1:1.00
Language : English
Default : No
Forced : No
Color range : Limited
Color primaries : BT.709
Transfer characteristics : BT.709
Matrix coefficients : BT.709

Audio #1
ID : 2
Format : AC-3
Format/Info : Audio Coding 3
Commercial name : Dolby Digital
Codec ID : A_AC3
Duration : 1 h 32 min
Bit rate mode : Constant
Bit rate : 448 kb/s
Channel(s) : 6 channels
Channel layout : L R C LFE Ls Rs
Sampling rate : 48.0 kHz
Frame rate : 31.250 FPS (1536 SPF)
Compression mode : Lossy
Stream size : 298 MiB (9%)
Title : MVO [Jaskier]
Language : Russian
Service kind : Complete Main
Default : Yes
Forced : Yes

Audio #2
ID : 3
Format : E-AC-3 JOC
Format/Info : Enhanced AC-3 with Joint Object Coding
Commercial name : Dolby Digital Plus with Dolby Atmos
Codec ID : A_EAC3
Duration : 1 h 32 min
Bit rate mode : Constant
Bit rate : 768 kb/s
Channel(s) : 6 channels
Channel layout : L R C LFE Ls Rs
Sampling rate : 48.0 kHz
Frame rate : 31.250 FPS (1536 SPF)
Compression mode : Lossy
Delay relative to video : 83 ms
Stream size : 510 MiB (15%)
Title : Original
Language : English
Service kind : Complete Main
Default : No
Forced : No
Complexity index : 16
Number of dynamic objects : 15
Bed channel count : 1 channel
Bed channel configuration : LFE

Text #1
ID : 4
Format : UTF-8
Codec ID : S_TEXT/UTF8
Codec ID/Info : UTF-8 Plain Text
Duration : 24 min 46 s
Bit rate : 2 b/s
Count of elements : 26
Stream size : 493 Bytes (0%)
Title : Forced
Language : English
Default : No
Forced : Yes

Text #2
ID : 5
Format : UTF-8
Codec ID : S_TEXT/UTF8
Codec ID/Info : UTF-8 Plain Text
Duration : 1 h 26 min
Bit rate : 78 b/s
Count of elements : 1690
Stream size : 49.6 KiB (0%)
Title : Full
Language : English
Default : No
Forced : No

Text #3
ID : 6
Format : UTF-8
Codec ID : S_TEXT/UTF8
Codec ID/Info : UTF-8 Plain Text
Duration : 1 h 32 min
Bit rate : 89 b/s
Count of elements : 2048
Stream size : 60.8 KiB (0%)
Title : SDH
Language : English
Default : No
Forced : No

Text #4
ID : 7
Format : UTF-8
Codec ID : S_TEXT/UTF8
Codec ID/Info : UTF-8 Plain Text
Duration : 1 h 31 min
Bit rate : 57 b/s
Count of elements : 1364
Stream size : 38.4 KiB (0%)
Title : Latin American
Language : Spanish
Default : No
Forced : No

Menu
00:00:00.000 : en:Chapter 1
00:04:22.000 : en:Chapter 2
00:10:36.000 : en:Chapter 3
00:16:41.000 : en:Chapter 4
00:19:03.000 : en:Chapter 5
00:24:45.000 : en:Chapter 6
00:29:19.000 : en:Chapter 7
00:34:09.000 : en:Chapter 8
00:37:31.000 : en:Chapter 9
00:43:29.000 : en:Chapter 10
00:50:49.000 : en:Chapter 11
00:55:13.000 : en:Chapter 12
00:57:59.000 : en:Chapter 13
01:05:23.000 : en:Chapter 14
01:09:01.000 : en:Chapter 15
01:13:10.000 : en:Chapter 16
01:18:59.000 : en:Chapter 17
01:22:25.000 : en:Chapter 18
01:24:37.000 : en:Chapter 19
01:27:14.000 : en:Chapter 20




Скачать Зверь через торрент https://i120.fastpic.org/big/2022/0911/fa/b478f3bbdbfa953a39e7b06b173e7efa.jpg Скачать, смотреть онлайн Зверь бесплантно в хорошем качестве Описание: Доктор Нэйт Дэниелс после смерти жены возвращается в Южную Африку, где они познакомились. Вместе с дочерьми он направляется в ... 9.6 10 5
Торрент: Зарегистрирован [2022-09-11 03:38] · скачан: 186 раз
Статус: √ проверено
Размер: 3.34 GB
Как cкачать? Как скачать Зверь через торрент | UTorrent

% Раздел Тема Автор DL S | L
Фильмы (Blu-ray, BD-Remux, HDDVD) [ 24.53 GB ] Зверь / Beast | Jaskier | BD Remux 1080p bober100 Скачать
2 | 0
Фильмы 2022 [DVDrip, WEB-DLRip, HDrip] (DUB, MVO) [ 1.46 GB ] Зверь / Beast | DUB | BDRip bober100 Скачать
5 | 1
Фильмы 2022 [DVDrip, WEB-DLRip, HDrip] (DUB, MVO) [ 747 MB ] Зверь / Beast | DUB | BDRip bober100 Скачать
2 | 0
Фильмы 2022 [DVDrip, WEB-DLRip, HDrip] (DUB, MVO) [ 2.02 GB ] Зверь / Beast | Jaskier | DLRip-AVC Lithuania Скачать
3 | 0
Фильмы 2022 [DVDrip, WEB-DLRip, HDrip] (DUB, MVO) [ 1.46 GB ] Зверь / Beast | Jaskier | DLRip bober100 Скачать
2 | 0
Фильмы [HD 720p, 1080p] (Хороший звук DUB, MVO) [ 13.88 GB ] Зверь / Beast | Jaskier | 1080p bober100 Скачать
3 | 0
Фильмы 2022 [DVDrip, WEB-DLRip, HDrip] (DUB, MVO) [ 1.88 GB ] Зверь / Beast | Jaskier | DLRip-AVC bober100 Скачать
1 | 0

28-11-2019 20:33  


Отключить вcю реклaмy на сайте, в т.ч. и в плеере онлайн просмотра!

    Дорогой пользователь! Огромная просьба, поблагодарите релизера, оцените раздачу и оставьте свои комментарий, если Вы скачали Зверь через торрент бесплатно!!
    Комментировать посты могут только пользователи прошедшие не сложную регистрацию
    Показать сообщения:    


    Зверь через торрент
    Скачать бесплатно Зверь
    Зверь скачать торрент
    Зверь смотреть онлайн
    Cкачать фильм Зверь бесплатно
    Зверь скачать торрент в хорошем качестве
    Зверь смотреть онлайн бесплатно в хорошем качестве
    Вы не можете начинать темы
    Вы не можете отвечать на сообщения
    Вы не можете редактировать свои сообщения
    Вы не можете удалять свои сообщения
    Вы не можете голосовать в опросах
    Вы не можете прикреплять файлы к сообщениям
    Вы можете скачивать файлы
    Зверь / Beast [2022, Ужасы, триллер, драма, приключения, WEB-DL 720p] MVO [Jaskier] смотреть онлайн, скачать торрент picoco.icu