Доктор Стрэндж

Лицензия

Добыча

Дубляж

Дом дракона

1 сезон

Тор

Дубляж

В эфире

Дубляж

Там, где раки поют

MVO

Властелин колец

1 сезон

Deluxe

pack

Рекомендуем

30

Пиратка

ВАЖНО

ВАЖНО

Ghostwire

Пиратка

jed

RePack

nioh2

RePack

RDR2

RePack

NEED FOR SPEED™ PAYBACK

RePack

скачать торрент

Кинопоиск HD

Острые козырьки 6 сезон

6 сезон

FAR CRY 6

RePack

скачать торрент

Лицензия

скачать торрент

MVO

1

1 сезон

скачать торрент

1 сезон

скачать торрент

Лицензия

  

Тор: Любовь и гром / Thor: Love and Thunder (Тайка Вайтити) [2022, Фантастика, фэнтези, боевик, мелодрама, комедия, приключения, UHD BDRemux 2160p] 2xMVO [Jaskier, NewComers]

Тор: Любовь и гром через торрент pb.wtf

Раздают: 3 [ 746 KB/s ] Качают: 1 [ 0 KB/s ]
Размер: 47.54 GB | Добавлен: 2 мес. 18 д. назад | Торрент скачан:135 раз
Смотреть онлайн | Скачать   

11-09-2022 07:11 Тор: Любовь и гром Скачать торрент  

Тор: Любовь и гром
Thor: Love and Thunder

Год выпуска: 2022
Страна: США, Австралия
Выпущено: Fox Studios Australia, Marvel Studios Inc., Walt Disney Pictures
Жанр: Фантастика, фэнтези, боевик, мелодрама, комедия, приключения
Продолжительность: 01:58:43
Перевод:
#1: Профессиональный многоголосый | Jaskier
#2: Профессиональный многоголосый | NewComers
Субтитры: Русские (Full), английские

Режиссер: Тайка Вайтити

rating

В ролях: Крис Хемсворт, Натали Портман, Крис Прэтт, Тайка Вайтити, Сэм Нилл, Брэдли Купер, Мелисса Маккарти, Кристиан Бэйл, Карен Гиллан, Мэтт Дэймон

Описание: Не успев насладиться заслуженным отдыхом, Тор встречает нового врага в лице Горра Убийцы богов, жаждущего истребить все божества во вселенной. Чтобы противостоять ему, Тор объединяется с Валькирией, Коргом и своей бывшей девушкой Джейн Фостер, ставшей Могучим Тором. Вместе они должны остановить злодея, пока не стало слишком поздно.

Качество: UHD BDRemux 2160p
Формат: MKV

Видео: 3840x2160 at 23.976 fps, MPEG-H HEVC HDR ~ 51100 kbps avg
Аудио #01: 48 kHz, AC3, 5.1, 384 Kbps | Профессиональный многоголосый | Jaskier | RUS |
Аудио #02: 48 kHz, AC3, 5.1, 448 Kbps | Профессиональный многоголосый | NewComers | RUS |
Аудио #03: 48 kHz, TrueHD, 7.1, 4691 Kbps | Оригинал | ENG |
Аудио #04: 48 kHz, 48 kHz, AC3, 5.1, 640 Kbps | Оригинал | ENG |
скриншот  скриншот  скриншот  скриншот  скриншот  скриншот  

General
Unique ID : 256546570825134728902940700545166165077 (0xC10112817AB9A4C2B5E1716AB9FD4455)
Complete name : F:VideoThor.Love.and.Thunder.2022.BDREMUX.2160p.HDR.seleZen.mkv
Format : Matroska
Format version : Version 4
File size : 47.5 GiB
Duration : 1 h 58 min
Overall bit rate mode : Variable
Overall bit rate : 57.3 Mb/s
Movie name : Thor: Love and Thunder 2022 from seleZen
Encoded date : UTC 2022-09-14 19:21:30
Writing application : mkvmerge v59.0.0 ('Shining Star') 64-bit
Writing library : libebml v1.4.2 + libmatroska v1.6.4

Video
ID : 1
Format : HEVC
Format/Info : High Efficiency Video Coding
Format profile : Main [email protected]@High
HDR format : SMPTE ST 2086, HDR10 compatible
Codec ID : V_MPEGH/ISO/HEVC
Duration : 1 h 58 min
Bit rate : 51.1 Mb/s
Width : 3 840 pixels
Height : 2 160 pixels
Display aspect ratio : 16:9
Frame rate mode : Constant
Frame rate : 23.976 (24000/1001) FPS
Color space : YUV
Chroma subsampling : 4:2:0 (Type 2)
Bit depth : 10 bits
Bits/(Pixel*Frame) : 0.257
Stream size : 42.4 GiB (89%)
Language : English
Default : Yes
Forced : No
Color range : Limited
Color primaries : BT.2020
Transfer characteristics : PQ
Matrix coefficients : BT.2020 non-constant
Mastering display color pri : BT.2020
Mastering display luminance : min: 0.0050 cd/m2, max: 1000 cd/m2

Audio #1
ID : 2
Format : AC-3
Format/Info : Audio Coding 3
Commercial name : Dolby Digital
Codec ID : A_AC3
Duration : 1 h 58 min
Bit rate mode : Constant
Bit rate : 384 kb/s
Channel(s) : 6 channels
Channel layout : L R C LFE Ls Rs
Sampling rate : 48.0 kHz
Frame rate : 31.250 FPS (1536 SPF)
Compression mode : Lossy
Stream size : 326 MiB (1%)
Title : MVO [Jaskier]
Language : Russian
Service kind : Complete Main
Default : Yes
Forced : Yes

Audio #2
ID : 3
Format : AC-3
Format/Info : Audio Coding 3
Commercial name : Dolby Digital
Codec ID : A_AC3
Duration : 1 h 58 min
Bit rate mode : Constant
Bit rate : 448 kb/s
Channel(s) : 6 channels
Channel layout : L R C LFE Ls Rs
Sampling rate : 48.0 kHz
Frame rate : 31.250 FPS (1536 SPF)
Compression mode : Lossy
Stream size : 381 MiB (1%)
Title : MVO [NewComers]
Language : Russian
Service kind : Complete Main
Default : No
Forced : No

Audio #3
ID : 4
Format : MLP FBA 16-ch
Format/Info : Meridian Lossless Packing FBA with 16-channel presentation
Commercial name : Dolby TrueHD with Dolby Atmos
Codec ID : A_TRUEHD
Duration : 1 h 58 min
Bit rate mode : Variable
Bit rate : 4 691 kb/s
Maximum bit rate : 8 409 kb/s
Channel(s) : 8 channels
Channel layout : L R C LFE Ls Rs Lb Rb
Sampling rate : 48.0 kHz
Frame rate : 1 200.000 FPS (40 SPF)
Compression mode : Lossless
Stream size : 3.89 GiB (8%)
Title : Original
Language : English
Default : No
Forced : No
Number of dynamic objects : 13
Bed channel count : 1 channel
Bed channel configuration : LFE

Audio #4
ID : 5
Format : AC-3
Format/Info : Audio Coding 3
Commercial name : Dolby Digital
Codec ID : A_AC3
Duration : 1 h 58 min
Bit rate mode : Constant
Bit rate : 640 kb/s
Channel(s) : 6 channels
Channel layout : L R C LFE Ls Rs
Sampling rate : 48.0 kHz
Frame rate : 31.250 FPS (1536 SPF)
Compression mode : Lossy
Stream size : 544 MiB (1%)
Language : English
Service kind : Complete Main
Default : No
Forced : No

Text #1
ID : 6
Format : UTF-8
Codec ID : S_TEXT/UTF8
Codec ID/Info : UTF-8 Plain Text
Duration : 1 h 57 min
Bit rate : 94 b/s
Frame rate : 0.228 FPS
Count of elements : 1615
Stream size : 81.6 KiB (0%)
Title : Full [Cool Story Blog]
Language : Russian
Default : No
Forced : No

Text #2
ID : 7
Format : UTF-8
Codec ID : S_TEXT/UTF8
Codec ID/Info : UTF-8 Plain Text
Duration : 1 h 57 min
Bit rate : 56 b/s
Frame rate : 0.255 FPS
Count of elements : 1800
Stream size : 48.8 KiB (0%)
Title : Full
Language : English
Default : No
Forced : No

Text #3
ID : 8
Format : UTF-8
Codec ID : S_TEXT/UTF8
Codec ID/Info : UTF-8 Plain Text
Duration : 1 h 58 min
Bit rate : 70 b/s
Frame rate : 0.321 FPS
Count of elements : 2281
Stream size : 61.0 KiB (0%)
Title : SDH
Language : English
Default : No
Forced : No

Menu
00:00:00.000 : Chapter 1
00:06:45.154 : Chapter 2
00:10:11.319 : Chapter 3
00:14:23.904 : Chapter 4
00:18:13.425 : Chapter 5
00:20:59.508 : Chapter 6
00:21:47.806 : Chapter 7
00:27:00.994 : Chapter 8
00:28:16.194 : Chapter 9
00:29:52.248 : Chapter 10
00:31:24.507 : Chapter 11
00:35:15.113 : Chapter 12
00:38:40.443 : Chapter 13
00:45:37.443 : Chapter 14
00:53:04.222 : Chapter 15
01:06:18.807 : Chapter 16
01:14:16.910 : Chapter 17
01:24:35.820 : Chapter 18
01:28:31.180 : Chapter 19
01:30:19.622 : Chapter 20
01:34:17.652 : Chapter 21
01:38:12.678 : Chapter 22
01:44:44.778 : Chapter 23
01:48:17.616 : Chapter 24
01:50:03.221 : Chapter 25
01:51:14.542 : Chapter 26




Скачать Тор: Любовь и гром через торрент https://i120.fastpic.org/big/2022/0911/19/e0912aba4d9ed35c80ef78b1fd37b819.jpg Скачать, смотреть онлайн Тор: Любовь и гром бесплантно в хорошем качестве Описание: Не успев насладиться заслуженным отдыхом, Тор встречает нового врага в лице Горра Убийцы богов, жаждущего истребить все божества ... 9.5 10 12
Торрент: Зарегистрирован [2022-09-14 22:10] · скачан: 135 раз
Статус: √ проверено
Размер: 47.54 GB
Как cкачать? Как скачать Тор: Любовь и гром через торрент | UTorrent

% Раздел Тема Автор DL S | L
Фильмы 2022 [DVDrip, WEB-DLRip, HDrip] (DUB, MVO) [ 1.46 GB ] Тор: Любовь и гром / Thor: Love and Thunder | Jaskier | DLRip bober100 Скачать
43 | 9
3D Фильмы [ 12.6 GB ] Тор: Любовь и гром в 3Д / Thor: Love and Thunder 3D | | 1080p serega768 Скачать
2 | 2
Фильмы (HD 720p, 1080p) (48-60 fps) [ 4.55 GB ] Тор: Любовь и гром / Thor: Love and Thunder | Дубляж | DLRip 720p / 60 FPS slaventi-69 Скачать
1 | 0
Фильмы [HD 720p, 1080p] (Хороший звук DUB, MVO) [ 7.06 GB ] Тор: Любовь и гром / Thor: Love and Thunder | Jaskier | 1080p bober100 Скачать
22 | 0
Фильмы [HD 720p, 1080p] (Хороший звук DUB, MVO) [ 10.85 GB ] Тор: Любовь и гром / Thor: Love and Thunder | Лицензия | 1080p bober100 Скачать
42 | 0
Фильмы 2022 [DVDrip, WEB-DLRip, HDrip] (DUB, MVO) [ 2.18 GB ] Тор: Любовь и гром / Thor: Love and Thunder | Jaskier | BDRip bober100 Скачать
15 | 0
Фильмы 2022 [DVDrip, WEB-DLRip, HDrip] (DUB, MVO) [ 1.46 GB ] Тор: Любовь и гром / Thor: Love and Thunder | Лицензия | BDRip bober100 Скачать
14 | 1

28-11-2019 20:33  


Отключить вcю реклaмy на сайте, в т.ч. и в плеере онлайн просмотра!

    Дорогой пользователь! Огромная просьба, поблагодарите релизера, оцените раздачу и оставьте свои комментарий, если Вы скачали Тор: Любовь и гром через торрент бесплатно!!
    Комментировать посты могут только пользователи прошедшие не сложную регистрацию
    Показать сообщения:    


    Тор: Любовь и гром через торрент
    Скачать бесплатно Тор: Любовь и гром
    Тор: Любовь и гром скачать торрент
    Тор: Любовь и гром смотреть онлайн
    Cкачать фильм Тор: Любовь и гром бесплатно
    Тор: Любовь и гром скачать торрент в хорошем качестве
    Тор: Любовь и гром смотреть онлайн бесплатно в хорошем качестве
    Вы не можете начинать темы
    Вы не можете отвечать на сообщения
    Вы не можете редактировать свои сообщения
    Вы не можете удалять свои сообщения
    Вы не можете голосовать в опросах
    Вы не можете прикреплять файлы к сообщениям
    Вы можете скачивать файлы
    Тор: Любовь и гром / Thor: Love and Thunder [2022, Фантастика, фэнтези, боевик, мелодрама, комедия, приключения, UHD BDRemux 2160p] 2xMVO [Jaskier, NewComers] смотреть онлайн, скачать торрент picoco.icu