Лицензия

MVO

1

1 сезон

Лицензия

Лицензия

13

MVO

1 сезон

Deluxe Edition

pack

Рекомендуем

30

Repack

ВАЖНО

ВАЖНО

Ghostwire

RePack

jed

RePack

fifa19

RePack

RDR2

RePack

NEED FOR SPEED™ PAYBACK

RePack

Кинопоиск HD

 Острые козырьки 6 сезон

6 сезон

FAR CRY 6

RePack

Лицензия

MVO

1

1 сезон

1 сезон

Лицензия

  

Глубокое влияние / Sous Emprise / No Limit (Дэвид М. Розенталь) [2022, драма, мелодрама, спорт, WEB-DLRip-AVC] DVO [Pazl Voice] от ExKinoRay

Глубокое влияние через торрент pb.wtf

Раздают: 1 [ 0 KB/s ]
Размер: 2.66 GB | Добавлен: 13 д. назад | Торрент скачан:66 раз
Смотреть онлайн Глубокое влияние | Скачать   

11-09-2022 08:32 Глубокое влияние Скачать торрент  


Глубокое влияние / Sous Emprise / No Limit
Информация о фильме:
Название: Глубокое влияние
Оригинальное название: Sous Emprise / No Limit
Год выхода: 2022
Жанр: драма, мелодрама, спорт
Режиссер: Дэвид М. Розенталь
В ролях: Софиана Зермани, Камилль Роу, Сезар Домбуа, Захари Шассерьо, Лоран Фернандес, Йонас Динал, Натали Митсон, Белен Энгуиданос, Хассам Ганси, Александр Пул

Описание: Роксана живет в столице Франции, куда подавляющее большинство людей стремятся попасть в обязательном порядке. Она же наоборот, намерена бросить учебу и уехать в другой конец страны. Истинная цель девушки научиться дайвингу, желательно на профессиональном уровне. И вот когда Роксана оказвыается в необходимом пункте назначения, то происходит неожиданное знакомство с Паскалем, который является рекордсменом по фридайвингу и который становится ее инструктором. Она влюбляется до глубины души, и между молодыми людьми начинаются романтические отношения.



Страна: Франция
Студия: Nolita Cinema
Продолжительность: 01:58:44
Перевод: Любительский (двухголосый, закадровый) - Pazl Voice



Информация о файле:
Кодек: AVC
Формат: MKV
Качество: WEB-DLRip-AVC
Видео: MPEG-4 AVC, 1024x428, 24.000 fps, 1920 kbps
Аудио RU: AC3, 6 ch, 48 kHz, 384 kbps
Аудио FRA: AC3, 6 ch, 48 kHz, 448 kbps
Аудио EN: AC3, 6 ch, 48 kHz, 448 kbps
Субтитры: Русские, французские, английские



x264 info: frame I:1198 Avg QP:14.54 size: 51755
x264 info: frame P:40793 Avg QP:18.24 size: 19123
x264 info: frame B:128996 Avg QP:20.14 size: 6722
General
Unique ID : 79699307227662520668708703400104007386 (0x3BF5873A5255D469EB06275A9A3F96DA)
Complete name : D:uTorrentРипы wolf1245No Limit.2022.DVO.Pazl.x264.WEB-DLRip-AVC.[wolf1245.ExKinoRay].mkv
Format : Matroska
Format version : Version 4
File size : 2.66 GiB
Duration : 1 h 58 min
Overall bit rate : 3 202 kb/s
Movie name : No Limit.2022.DVO.Pazl.x264.WEB-DLRip-AVC.[wolf1245.ExKinoRay]
Encoded date : UTC 2022-09-11 08:18:37
Writing application : mkvmerge v70.0.0 ('Caught A Lite Sneeze') 64-bit
Writing library : libebml v1.4.2 + libmatroska v1.6.4
Video
ID : 1
Format : AVC
Format/Info : Advanced Video Codec
Format profile : [email protected]
Format settings : CABAC / 14 Ref Frames
Format settings, CABAC : Yes
Format settings, Reference frames : 14 frames
Codec ID : V_MPEG4/ISO/AVC
Duration : 1 h 58 min
Bit rate : 1 920 kb/s
Width : 1 024 pixels
Height : 428 pixels
Display aspect ratio : 2.40:1
Frame rate mode : Constant
Frame rate : 24.000 FPS
Color space : YUV
Chroma subsampling : 4:2:0
Bit depth : 8 bits
Scan type : Progressive
Bits/(Pixel*Frame) : 0.183
Stream size : 1.59 GiB (60%)
Title : -=[wolf1245.ExKinoRay]=-
Writing library : x264 core 163 r3060 5db6aa6
Encoding settings : cabac=1 / ref=14 / deblock=1:-2:-2 / analyse=0x3:0x133 / me=umh / subme=10 / psy=1 / psy_rd=0.98:0.07 / mixed_ref=1 / me_range=32 / chroma_me=1 / trellis=2 / 8x8dct=1 / cqm=0 / deadzone=22,11 / fast_pskip=1 / chroma_qp_offset=-3 / threads=10 / lookahead_threads=2 / sliced_threads=0 / nr=0 / decimate=0 / interlaced=0 / bluray_compat=0 / constrained_intra=0 / bframes=12 / b_pyramid=2 / b_adapt=2 / b_bias=0 / direct=3 / weightb=1 / open_gop=0 / weightp=2 / keyint=240 / keyint_min=24 / scenecut=40 / intra_refresh=0 / rc_lookahead=100 / rc=2pass / mbtree=0 / bitrate=1920 / ratetol=1.0 / qcomp=0.75 / qpmin=0 / qpmax=69 / qpstep=4 / cplxblur=20.0 / qblur=0.5 / vbv_maxrate=50000 / vbv_bufsize=62500 / nal_hrd=none / filler=0 / ip_ratio=1.37 / pb_ratio=1.27 / aq=3:0.80
Language : French
Default : Yes
Forced : No
Audio #1
ID : 2
Format : AC-3
Format/Info : Audio Coding 3
Commercial name : Dolby Digital
Codec ID : A_AC3
Duration : 1 h 58 min
Bit rate mode : Constant
Bit rate : 384 kb/s
Channel(s) : 6 channels
Channel layout : L R C LFE Ls Rs
Sampling rate : 48.0 kHz
Frame rate : 31.250 FPS (1536 SPF)
Compression mode : Lossy
Stream size : 326 MiB (12%)
Title : DVO | Pazl Voice | RUS
Language : Russian
Service kind : Complete Main
Default : Yes
Forced : No
Audio #2
ID : 3
Format : AC-3
Format/Info : Audio Coding 3
Commercial name : Dolby Digital
Codec ID : A_AC3
Duration : 1 h 58 min
Bit rate mode : Constant
Bit rate : 448 kb/s
Channel(s) : 6 channels
Channel layout : L R C LFE Ls Rs
Sampling rate : 48.0 kHz
Frame rate : 31.250 FPS (1536 SPF)
Compression mode : Lossy
Stream size : 381 MiB (14%)
Title : Original | FRA
Language : French
Service kind : Complete Main
Default : No
Forced : No
Audio #3
ID : 4
Format : AC-3
Format/Info : Audio Coding 3
Commercial name : Dolby Digital
Codec ID : A_AC3
Duration : 1 h 58 min
Bit rate mode : Constant
Bit rate : 448 kb/s
Channel(s) : 6 channels
Channel layout : L R C LFE Ls Rs
Sampling rate : 48.0 kHz
Frame rate : 31.250 FPS (1536 SPF)
Compression mode : Lossy
Stream size : 381 MiB (14%)
Title : Original | ENG
Language : English
Service kind : Complete Main
Default : No
Forced : No
Text #1
ID : 5
Format : UTF-8
Codec ID : S_TEXT/UTF8
Codec ID/Info : UTF-8 Plain Text
Duration : 1 h 57 min
Bit rate : 58 b/s
Count of elements : 1097
Stream size : 50.7 KiB (0%)
Language : Russian
Default : No
Forced : No
Text #2
ID : 6
Format : UTF-8
Codec ID : S_TEXT/UTF8
Codec ID/Info : UTF-8 Plain Text
Duration : 1 h 50 min
Bit rate : 3 b/s
Count of elements : 76
Stream size : 2.51 KiB (0%)
Title : Forced
Language : French
Default : No
Forced : No
Text #3
ID : 7
Format : UTF-8
Codec ID : S_TEXT/UTF8
Codec ID/Info : UTF-8 Plain Text
Duration : 1 h 54 min
Bit rate : 43 b/s
Count of elements : 1097
Stream size : 36.2 KiB (0%)
Title : Full
Language : French
Default : No
Forced : No
Text #4
ID : 8
Format : UTF-8
Codec ID : S_TEXT/UTF8
Codec ID/Info : UTF-8 Plain Text
Duration : 1 h 57 min
Bit rate : 50 b/s
Count of elements : 1325
Stream size : 43.6 KiB (0%)
Title : SDH
Language : French
Default : No
Forced : No
Text #5
ID : 9
Format : UTF-8
Codec ID : S_TEXT/UTF8
Codec ID/Info : UTF-8 Plain Text
Duration : 1 h 52 min
Bit rate : 1 b/s
Count of elements : 28
Stream size : 929 Bytes (0%)
Title : Forced
Language : English
Default : No
Forced : No
Text #6
ID : 10
Format : UTF-8
Codec ID : S_TEXT/UTF8
Codec ID/Info : UTF-8 Plain Text
Duration : 1 h 52 min
Bit rate : 45 b/s
Count of elements : 1212
Stream size : 37.2 KiB (0%)
Language : English
Default : No
Forced : No
Text #7
ID : 11
Format : UTF-8
Codec ID : S_TEXT/UTF8
Codec ID/Info : UTF-8 Plain Text
Duration : 1 h 52 min
Bit rate : 37 b/s
Count of elements : 1003
Stream size : 31.3 KiB (0%)
Language : English
Default : No
Forced : No
Text #8
ID : 12
Format : UTF-8
Codec ID : S_TEXT/UTF8
Codec ID/Info : UTF-8 Plain Text
Duration : 1 h 57 min
Bit rate : 52 b/s
Count of elements : 1490
Stream size : 45.2 KiB (0%)
Title : SDH
Language : English
Default : No
Forced : No
Релиз от:
Автор релиза:



Скачать Глубокое влияние через торрент http://i120.fastpic.org/big/2022/0910/ee/283d76f82a9d0c126d92a8add42aa7ee.jpg Скачать, смотреть онлайн Глубокое влияние бесплантно в хорошем качестве Описание: Роксана живет в столице Франции, куда подавляющее большинство людей стремятся попасть в обязательном порядке. Она же наоборот, ... 10 10 5
Торрент: Зарегистрирован [2022-09-11 08:32] · скачан: 66 раз
Статус: √ проверено
Размер: 2.66 GB
Как cкачать? Как скачать Глубокое влияние через торрент | UTorrent

28-11-2019 20:33  

Отключить вcю реклaмy на сайте

11-09-2022 13:43 Глубокое влияние Скачать торрент  

какие скрины информативыне



    Дорогой пользователь! Огромная просьба, поблагодарите релизера, оцените раздачу и оставьте свои комментарий, если Вы скачали Глубокое влияние через торрент бесплатно!!
    Комментировать посты могут только пользователи прошедшие не сложную регистрацию
    Показать сообщения:    


    Глубокое влияние через торрент
    Скачать бесплатно Глубокое влияние
    Глубокое влияние скачать торрент
    Глубокое влияние смотреть онлайн
    Cкачать фильм Глубокое влияние бесплатно
    Глубокое влияние скачать торрент в хорошем качестве
    Глубокое влияние смотреть онлайн бесплатно в хорошем качестве
    Вы можете начинать темы
    Вы можете отвечать на сообщения
    Вы не можете редактировать свои сообщения
    Вы не можете удалять свои сообщения
    Вы не можете голосовать в опросах
    Вы не можете прикреплять файлы к сообщениям
    Вы можете скачивать файлы