Достать ножи: Стеклянная луковица

MVO

Добыча

Дубляж

Уэнсдэй

1 сезон

Тор

Дубляж

13 клиническая

1 сезон

Жестокая ночь

MVO

Одни из нас

1 сезон

Deluxe

pack

Рекомендуем

30

Пиратка

ВАЖНО

ВАЖНО

Ghostwire

Пиратка

jed

RePack

nioh2

RePack

RDR2

RePack

NEED FOR SPEED™ PAYBACK

RePack

скачать торрент

Кинопоиск HD

Острые козырьки 6 сезон

6 сезон

FAR CRY 6

RePack

скачать торрент

Лицензия

скачать торрент

MVO

1

1 сезон

скачать торрент

1 сезон

скачать торрент

Лицензия

  

Зверь / Beast (Бальтасар Кормакур) [2022, Ужасы, триллер, драма, приключения, WEB-DLRip-AVC] MVO [Jaskier] от ExKinoRay

Зверь через торрент pb.wtf

Раздают: 2 [ 0 KB/s ]
Размер: 2.02 GB | Добавлен: 4 мес. 17 д. назад | Торрент скачан:400 раз
Смотреть онлайн | Скачать | Поддержите нас   

11-09-2022 11:05 Зверь Скачать торрент  


Зверь / Beast
Информация Описание:
Название: Зверь
Оригинальное название: Beast
Год выхода: 2022
Жанр: Ужасы, триллер, драма, приключения
Режиссер: Бальтасар Кормакур
В ролях: Идрис Эльба, Шарлто Копли, Ияна Хэлли, Леа Джеффрис, Мелани Джарнсон, Анзор Алем, Билли Галлахер, Дориан Хеджвуд, Кейт Грисли, Трэвис Лемрик

Описание: Доктор Нэйт Дэниелс после смерти жены возвращается в Южную Африку, где они познакомились. Вместе с дочерьми он направляется в заповедник, которым управляет давний друг семьи Мартин Баттлс. Однако семейная поездка оборачивается опасным приключением, в котором Нэйту придется бороться за выживание со свирепым львом.



Страна: США
Студия: Universal Pictures, RVK Studios, Will Packer Productions
Продолжительность: 01:32:47
Перевод: Профессиональный (многоголосый, закадровый) - Jaskier



Информация о файле:
Кодек: AVC
Формат: MKV
Качество: WEB-DLRip-AVC
Видео: MPEG-4 AVC, 1024x426, 23.976 fps, 2220 kbps
Аудио RU: AC3, 6 ch, 48 kHz, 448 kbps
Аудио EN: AC3, 6 ch, 48 kHz, 448 kbps
Субтитры: Английские



x264 info: frame I:684 Avg QP:15.53 size: 66959
x264 info: frame P:36042 Avg QP:19.37 size: 23062
x264 info: frame B:96753 Avg QP:20.34 size: 6886
General
Unique ID : 181922773549360417831246008250727674388 (0x88DD0D3D28D1B0EB6E3E0D1E8CAC3214)
Complete name : D:uTorrentРипы wolf1245Beast.2022.MVO.Jaskier.x264.WEB-DLRip-AVC.[wolf1245.ExKinoRay].mkv
Format : Matroska
Format version : Version 4
File size : 2.02 GiB
Duration : 1 h 32 min
Overall bit rate : 3 113 kb/s
Movie name : Beast.2022.MVO.Jaskier.x264.WEB-DLRip-AVC.[wolf1245.ExKinoRay]
Encoded date : UTC 2022-09-11 10:54:45
Writing application : mkvmerge v70.0.0 ('Caught A Lite Sneeze') 64-bit
Writing library : libebml v1.4.2 + libmatroska v1.6.4
Video
ID : 1
Format : AVC
Format/Info : Advanced Video Codec
Format profile : [email protected]
Format settings : CABAC / 14 Ref Frames
Format settings, CABAC : Yes
Format settings, Reference frames : 14 frames
Codec ID : V_MPEG4/ISO/AVC
Duration : 1 h 32 min
Bit rate : 2 220 kb/s
Width : 1 024 pixels
Height : 426 pixels
Display aspect ratio : 2.40:1
Frame rate mode : Constant
Frame rate : 23.976 (24000/1001) FPS
Color space : YUV
Chroma subsampling : 4:2:0
Bit depth : 8 bits
Scan type : Progressive
Bits/(Pixel*Frame) : 0.212
Stream size : 1.44 GiB (71%)
Title : -=[wolf1245.ExKinoRay]=-
Writing library : x264 core 163 r3060 5db6aa6
Encoding settings : cabac=1 / ref=14 / deblock=1:-2:-2 / analyse=0x3:0x133 / me=umh / subme=10 / psy=1 / psy_rd=1.00:0.15 / mixed_ref=1 / me_range=32 / chroma_me=1 / trellis=2 / 8x8dct=1 / cqm=0 / deadzone=22,11 / fast_pskip=1 / chroma_qp_offset=-3 / threads=10 / lookahead_threads=2 / sliced_threads=0 / nr=0 / decimate=0 / interlaced=0 / bluray_compat=0 / constrained_intra=0 / bframes=12 / b_pyramid=2 / b_adapt=2 / b_bias=0 / direct=3 / weightb=1 / open_gop=0 / weightp=2 / keyint=240 / keyint_min=24 / scenecut=40 / intra_refresh=0 / rc_lookahead=100 / rc=2pass / mbtree=0 / bitrate=2220 / ratetol=1.0 / qcomp=0.75 / qpmin=0 / qpmax=69 / qpstep=4 / cplxblur=20.0 / qblur=0.5 / vbv_maxrate=50000 / vbv_bufsize=62500 / nal_hrd=none / filler=0 / ip_ratio=1.37 / pb_ratio=1.27 / aq=1:1.10
Language : English
Default : Yes
Forced : No
Color range : Limited
Color primaries : BT.709
Transfer characteristics : BT.709
Matrix coefficients : BT.709
Audio #1
ID : 2
Format : AC-3
Format/Info : Audio Coding 3
Commercial name : Dolby Digital
Codec ID : A_AC3
Duration : 1 h 32 min
Bit rate mode : Constant
Bit rate : 448 kb/s
Channel(s) : 6 channels
Channel layout : L R C LFE Ls Rs
Sampling rate : 48.0 kHz
Frame rate : 31.250 FPS (1536 SPF)
Compression mode : Lossy
Stream size : 298 MiB (14%)
Title : MVO | Jaskier | RUS
Language : Russian
Service kind : Complete Main
Default : Yes
Forced : Yes
Audio #2
ID : 3
Format : AC-3
Format/Info : Audio Coding 3
Commercial name : Dolby Digital
Codec ID : A_AC3
Duration : 1 h 32 min
Bit rate mode : Constant
Bit rate : 448 kb/s
Channel(s) : 6 channels
Channel layout : L R C LFE Ls Rs
Sampling rate : 48.0 kHz
Frame rate : 31.250 FPS (1536 SPF)
Compression mode : Lossy
Stream size : 297 MiB (14%)
Title : Original | ENG
Language : English
Service kind : Complete Main
Default : No
Forced : No
Text #1
ID : 4
Format : UTF-8
Codec ID : S_TEXT/UTF8
Codec ID/Info : UTF-8 Plain Text
Duration : 24 min 46 s
Bit rate : 2 b/s
Count of elements : 27
Stream size : 495 Bytes (0%)
Title : Forced
Language : English
Default : No
Forced : No
Text #2
ID : 5
Format : UTF-8
Codec ID : S_TEXT/UTF8
Codec ID/Info : UTF-8 Plain Text
Duration : 1 h 32 min
Bit rate : 86 b/s
Count of elements : 2022
Stream size : 59.0 KiB (0%)
Title : Full
Language : English
Default : No
Forced : No
Релиз от:
Автор релиза:



Скачать Зверь через торрент http://i120.fastpic.org/big/2022/0911/22/f04ce7cab735efb5c7c6ec00117cdf22.jpg Скачать, смотреть онлайн Зверь бесплантно в хорошем качестве Описание: Название: Зверь Оригинальное название: Beast Год выхода: 2022 Жанр: Ужасы, триллер, драма, приключения Режиссер: Бальтасар ... 10 10 8
Торрент: Зарегистрирован [2022-09-11 11:05] · скачан: 400 раз
Статус: √ проверено
Размер: 2.02 GB
Как cкачать? Как скачать Зверь через торрент | UTorrent

% Раздел Тема Автор DL S | L
Фильмы (Blu-ray, BD-Remux, HDDVD) [ 24.53 GB ] Зверь / Beast | Jaskier | BD Remux 1080p bober100 Скачать
2 | 0
Фильмы 2022-2023 [DVDrip, WEB-DLRip, HDrip] (DUB, MVO) [ 1.46 GB ] Зверь / Beast | DUB | BDRip bober100 Скачать
6 | 0
Фильмы 2022-2023 [DVDrip, WEB-DLRip, HDrip] (DUB, MVO) [ 747 MB ] Зверь / Beast | DUB | BDRip bober100 Скачать
2 | 0
Фильмы 2022-2023 [DVDrip, WEB-DLRip, HDrip] (DUB, MVO) [ 1.46 GB ] Зверь / Beast | Jaskier | DLRip bober100 Скачать
3 | 0
Фильмы [HD 720p, 1080p] (Хороший звук DUB, MVO) [ 13.88 GB ] Зверь / Beast | Jaskier | 1080p bober100 Скачать
4 | 0
Фильмы 2022-2023 [DVDrip, WEB-DLRip, HDrip] (DUB, MVO) [ 1.88 GB ] Зверь / Beast | Jaskier | DLRip-AVC bober100 Скачать
3 | 0
Фильмы (WEB-DL 720p, 1080p) [ 3.34 GB ] Зверь / Beast | Jaskier | 720p bober100 Скачать
2 | 0

28-11-2019 20:33  


Отключить вcю реклaмy на сайте, в т.ч. и в плеере онлайн просмотра!

11-09-2022 21:41 Зверь Скачать торрент  

13-09-2022 07:13 Зверь Скачать торрент  

13-09-2022 14:24 Зверь Скачать торрент  

18-09-2022 06:15 Зверь Скачать торрент  

19-09-2022 14:37 Зверь Скачать торрент  

GraySmokeFTP писал(а):

https://www.kinopoisk.ru/film/5815

актеры играют отвратительно, фильм дерьмо



    Дорогой пользователь! Огромная просьба, поблагодарите релизера, оцените раздачу и оставьте свои комментарий, если Вы скачали Зверь через торрент бесплатно!!
    Комментировать посты могут только пользователи прошедшие не сложную регистрацию
    Показать сообщения:    


    Зверь через торрент
    Скачать бесплатно Зверь
    Зверь скачать торрент
    Зверь смотреть онлайн
    Cкачать фильм Зверь бесплатно
    Зверь скачать торрент в хорошем качестве
    Зверь смотреть онлайн бесплатно в хорошем качестве
    Вы можете начинать темы
    Вы можете отвечать на сообщения
    Вы не можете редактировать свои сообщения
    Вы не можете удалять свои сообщения
    Вы не можете голосовать в опросах
    Вы не можете прикреплять файлы к сообщениям
    Вы можете скачивать файлы
    Зверь / Beast [2022, Ужасы, триллер, драма, приключения, WEB-DLRip-AVC] MVO [Jaskier] от ExKinoRay смотреть онлайн, скачать торрент picoco.icu