Доктор Стрэндж

Лицензия

Добыча

Дубляж

Дом дракона

1 сезон

Тор

Дубляж

В эфире

Дубляж

Там, где раки поют

MVO

Властелин колец

1 сезон

GLOBAL

pack

Рекомендуем

30

Пиратка

ВАЖНО

ВАЖНО

Ghostwire

Пиратка

jed

RePack

nioh2

RePack

RDR2

RePack

NEED FOR SPEED™ PAYBACK

RePack

скачать торрент

Кинопоиск HD

Острые козырьки 6 сезон

6 сезон

FAR CRY 6

RePack

скачать торрент

Лицензия

скачать торрент

MVO

1

1 сезон

скачать торрент

1 сезон

скачать торрент

Лицензия

  

Американский жиголо / American Gigolo / Сезон: 1 / Серии: 1-8 из 8 (Дэвид Холландер, Дэмиэн Маркано, Грегг Араки) [2022, Триллер, драма, мелодрама, криминал, детектив, WEB-DL 1080p] MVO [Jaskier]

Американский жиголо через торрент pb.wtf

Раздают: 1 [ 0 KB/s ] Качают: 1 [ 0 KB/s ]
Размер: 28.36 GB | Добавлен: 29 д. назад | Торрент скачан:35 раз
Смотреть онлайн | Скачать   

12-09-2022 02:27 Американский жиголо Скачать торрент  

Американский жиголо
American Gigolo

Год выпуска: 2022
Страна: США
Выпущено: Paramount Television, Jerry Bruckheimer Television, Showtime Networks, Three Rivers Entertainment
Жанр: Триллер, драма, мелодрама, криминал, детектив
Продолжительность: ~ 01:00:00 серия
Перевод: Профессиональный (многоголосый) | Jaskier
Субтитры: Английские (Full, SDH)

Режиссер: Дэвид Холландер, Дэмиэн Маркано, Грегг Араки

rating

В ролях: Джон Бернтал, Гретхен Мол, Лиззи Брошере, Гэбриел ЛаБелль, Лиленд Орсер, Рози О’Доннелл, Алекс Фернандес, Марк Махони, Уэйн Брэди, Йолонда Росс

Описание: Жиголо Джулиан Кей является одним из самых востребованных в своей профессии. Однажды его клиентку находят мёртвой и герой моментально попадает под подозрение. Спустя 15 лет после ареста он выходит из тюрьмы. Джулиан изо всех сил пытается найти своё место в современном Лос-Анджелесе и расследовать убийство, за которое он был осуждён, а также надеется восстановить связь со своей единственной настоящей любовь, Мишель.

Качество: WEB-DL 1080p
Формат: MKV

Видео: MPEG-4 AVC, ~ 7900 kbps, 1920х1080, 23.976 fps
Аудио#1 Rus: AC-3, 48 kHz, 6 ch, 384 kbps | Jaskier|
Аудио#2 Eng: AC-3, 48 kHz, 6 ch, 384 kbps | Original|
Аудио#3 Eng: E-AC-3, 48 kHz, 6 ch, 640 kbps | Original|
скриншот  скриншот  скриншот  скриншот  

Общее
Уникальный идентификатор : 249620417097988715730153330690389841461 (0xBBCB24C318D891974C9F4AEAF5E21635)
Полное имя : C:American_Gigolo_(s01)_Jaskier_1080p\American.Gigolo.2022.S01E01.Pilot.1080p.AMZN.WEB-DL.DDP5.1.x264-NTb_EniaHD.mkv
Формат : Matroska
Версия формата : Version 4
Размер файла : 3,93 Гбайт
Продолжительность : 1 ч. 0 м.
Общий поток : 9 276 Кбит/сек
Дата кодирования : UTC 2022-09-11 20:23:29
Программа кодирования : mkvmerge v58.0.0 ('Supper's Ready') 64-bit
Библиотека кодирования : libebml v1.4.2 + libmatroska v1.6.4

Видео
Идентификатор : 1
Формат : AVC
Формат/Информация : Advanced Video Codec
Профиль формата : [email protected]
Настройки формата : CABAC / 4 Ref Frames
Параметр CABAC формата : Да
Параметр RefFrames формата : 4 кадра
Идентификатор кодека : V_MPEG4/ISO/AVC
Продолжительность : 1 ч. 0 м.
Вид битрейта : Постоянный
Битрейт : 7 884 Кбит/сек
Номинальный битрейт : 10 000 Кбит/сек
Ширина : 1 920 пикселей
Высота : 1 080 пикселей
Соотношение сторон : 16:9
Режим частоты кадров : Постоянный
Частота кадров : 23,976 (24000/1001) кадра/сек
Цветовое пространство : YUV
Субдискретизация насыщенности : 4:2:0
Битовая глубина : 8 бит
Тип развёртки : Прогрессивная
Бит/(Пиксели*Кадры) : 0.155
Размер потока : 3,25 Гбайт (83%)
Заголовок : Release by EniaHD
Default : Да
Forced : Нет
Цветовой диапазон : Limited
Основные цвета : BT.709
Характеристики трансфера : BT.709
Коэффициенты матрицы : BT.709

Аудио #1
Идентификатор : 2
Формат : AC-3
Формат/Информация : Audio Coding 3
Коммерческое название : Dolby Digital
Идентификатор кодека : A_AC3
Продолжительность : 1 ч. 0 м.
Вид битрейта : Постоянный
Битрейт : 384 Кбит/сек
Каналы : 6 каналов
Channel layout : L R C LFE Ls Rs
Частота : 48,0 КГц
Частота кадров : 31,250 кадров/сек (1536 SPF)
Метод сжатия : С потерями
Размер потока : 167 Мбайт (4%)
Заголовок : Jaskier
Язык : Russian
Service kind : Complete Main
Default : Нет
Forced : Нет

Аудио #2
Идентификатор : 3
Формат : AC-3
Формат/Информация : Audio Coding 3
Коммерческое название : Dolby Digital
Идентификатор кодека : A_AC3
Продолжительность : 1 ч. 0 м.
Вид битрейта : Постоянный
Битрейт : 384 Кбит/сек
Каналы : 6 каналов
Channel layout : L R C LFE Ls Rs
Частота : 48,0 КГц
Частота кадров : 31,250 кадров/сек (1536 SPF)
Метод сжатия : С потерями
Размер потока : 167 Мбайт (4%)
Язык : English
Service kind : Complete Main
Default : Нет
Forced : Нет

Аудио #3
Идентификатор : 4
Формат : E-AC-3
Формат/Информация : Enhanced AC-3
Коммерческое название : Dolby Digital Plus
Идентификатор кодека : A_EAC3
Продолжительность : 1 ч. 0 м.
Вид битрейта : Постоянный
Битрейт : 640 Кбит/сек
Каналы : 6 каналов
Channel layout : L R C LFE Ls Rs
Частота : 48,0 КГц
Частота кадров : 31,250 кадров/сек (1536 SPF)
Метод сжатия : С потерями
Задержка видео : 18 мс.
Размер потока : 278 Мбайт (7%)
Язык : English
Service kind : Complete Main
Default : Нет
Forced : Нет

Текст #1
Идентификатор : 5
Формат : UTF-8
Идентификатор кодека : S_TEXT/UTF8
Идентификатор кодека/Информация : UTF-8 Plain Text
Заголовок : Full
Язык : English
Default : Нет
Forced : Нет

Текст #2
Идентификатор : 6
Формат : UTF-8
Идентификатор кодека : S_TEXT/UTF8
Идентификатор кодека/Информация : UTF-8 Plain Text
Заголовок : SDH
Язык : English
Default : Нет
Forced : Нет

Когда раздача ведётся путём добавления новых серий, при каждом добавлении создётся новый торрент. Чтобы начать докачку новой серии, пользователям необходимо сделать следующее:
(1) остановить скачивание,
(2) удалить старый торрент у себя из клиента (старые серии удалять не надо),
(3) скачать новый торрент и запустить его у себя в клиенте вместо старого, при этом указать клиенту путь в старую папку, куда и должно происходить скачивание новых серий.
Ваш клиент при этом должен произвести хеширование (проверку) старой папки (если не производит сам - помогите ему сделать это), и будет докачивать только те серии, которых у вас ещё нет. Старые серии при этом не удаляются, а продолжают раздаваться!
Eсли вы уже удалили старые серии, то предотвратить повторную закачку старых серий можно, отжав галочку в соответсвующих местах при запуске нового торрента. По возможности, желательно не удалять старые серии как можно дольше, чтобы релизёр не столько продолжал раздавать старые серии, а смог сконцентрироваться на новых.




Скачать Американский жиголо через торрент https://i120.fastpic.org/big/2022/0912/58/a6f1a83c75ad7f94073a30db80de0a58.jpeg Скачать, смотреть онлайн Американский жиголо бесплантно в хорошем качестве Описание: Жиголо Джулиан Кей является одним из самых востребованных в своей профессии. Однажды его клиентку находят мёртвой и герой ... 9.6 10 9
Торрент: Зарегистрирован [2022-10-31 15:25] · скачан: 35 раз
Статус: √ проверено
Размер: 28.36 GB
Как cкачать? Как скачать Американский жиголо через торрент | UTorrent

% Раздел Тема Автор DL S | L
Зарубежные сериалы [ 15.04 GB ] Американский жиголо / American Gigolo / Сезон: 1 / Серии: 1-8 из 8 | Jaskier | 720p bober100 Скачать
9 | 1



Последний раз редактировалось: bober100 (2022-10-31 15:25), всего редактировалось 3 раз(а)

28-11-2019 20:33  


Отключить вcю реклaмy на сайте, в т.ч. и в плеере онлайн просмотра!

11-10-2022 11:59 Американский жиголо Скачать торрент  

сериал чёткий, жаль пробелы с переводом



02-11-2022 10:07 Американский жиголо Скачать торрент  

Сериал средненький,когда нечего посмотреть,сгодится.Перевод ужасный от Jaskier,прям отвратительный как по попаданию в текст,так и по подбору переводчиков.Оценка 6/10.Раздающему благодарность.



    Дорогой пользователь! Огромная просьба, поблагодарите релизера, оцените раздачу и оставьте свои комментарий, если Вы скачали Американский жиголо через торрент бесплатно!!
    Комментировать посты могут только пользователи прошедшие не сложную регистрацию
    Показать сообщения:    


    Американский жиголо через торрент
    Скачать бесплатно Американский жиголо
    Американский жиголо скачать торрент
    Американский жиголо смотреть онлайн
    Cкачать фильм Американский жиголо бесплатно
    Американский жиголо скачать торрент в хорошем качестве
    Американский жиголо смотреть онлайн бесплатно в хорошем качестве
    Вы не можете начинать темы
    Вы не можете отвечать на сообщения
    Вы не можете редактировать свои сообщения
    Вы не можете удалять свои сообщения
    Вы не можете голосовать в опросах
    Вы не можете прикреплять файлы к сообщениям
    Вы можете скачивать файлы
    Американский жиголо / American Gigolo / Сезон: 1 / Серии: 1-8 из 8 [2022, Триллер, драма, мелодрама, криминал, детектив, WEB-DL 1080p] MVO [Jaskier] смотреть онлайн, скачать торрент picoco.icu