Лицензия

MVO

1

1 сезон

Лицензия

Лицензия

13

MVO

1 сезон

Deluxe Edition

pack

Рекомендуем

30

Repack

ВАЖНО

ВАЖНО

Ghostwire

RePack

jed

RePack

fifa19

RePack

RDR2

RePack

NEED FOR SPEED™ PAYBACK

RePack

Кинопоиск HD

 Острые козырьки 6 сезон

6 сезон

FAR CRY 6

RePack

Лицензия

MVO

1

1 сезон

1 сезон

Лицензия

  

Голяк / Без Гроша / Brassic / Сезон: 4 / Серии: 1-8 из 8 (Дэниэл О’Хара) [2022, комедия, WEB-DL 1080p] 2x [MVO] (Ozz) (Rus, Ukr)

Голяк через торрент pb.wtf

Раздают: 8 [ 874 KB/s ] Качают: 3 [ 0 KB/s ]
Размер: 22.56 GB | Добавлен: 2 д. 14 ч. назад | Торрент скачан:36 раз
Смотреть онлайн Голяк | Скачать   

15-09-2022 21:20 Голяк Скачать торрент  

Голяк / Без Гроша / Brassic
✦ Год выпуска: 2022
✦ Страна: Великобритания
✦ Жанр: комедия
✦ Продолжительность: ~ 00:43:00
✦ Перевод #1: Профессиональный (многоголосый закадровый) Ozz
✦ Перевод #2: Профессиональный (многоголосый закадровый) Ozz - Украинский
✦ Субтитры: английские, русские, украинские

✦ Режиссёр: Дэниэл О’Хара

✦ В ролях: Тайг Мерфи, Джон Уивер, Джозеф Гилган, Стивен Хартли, Мишель Кигэн, Дэмиен Молони, Tom Hanson, Аарон Хеффернан, Парт Такерар, Райан Сэмпсон

✦ Описание: В центре сюжета оказывается компания приятелей, среди которых особо выделяются страдающий биполярным расстройством Винни и его лучший друг Дилан. Будучи неразлучными с детства, парни органично дополняли друг друга и находили способы разнообразить пресное существование в угрюмом Ланкашире, но их вступление во взрослую жизнь омрачено серией неприятностей. Совместными усилиями они стараются справляться с возникающими проблемами, но вскоре их длительная дружба оказывается под угрозой из-за желания девушки Дилана переехать вместе с ним в другой город...

rating

✦ Качество: WEB-DL 1080p
✦ Формат: MKV
✦ Видео: AVC, 1920x1080, 7830 kbps avg, 25 fps
✦ Аудио #1: Rus 48 kHz, AC3, 6 ch, 448 kbps |Ozz|
✦ Аудио #2: Ukr 48 kHz, AC3, 6 ch, 384 kbps |Ozz|
✦ Аудио #3: Eng 48 kHz, E-AC3, 6 ch, 192 kbps|Eng|
скриншот  скриншот  скриншот  скриншот  скриншот  
General
Unique ID : 224041038356258451004741489846322940632 (0xA88CBC0530A23BEAB6F53B0A62134AD8)
Complete name : G:\Brassic.S04.WEB-DL(1080p).xz\Brassic.S04E01.WEB-DL1080p.[Ozz] (Rus, Ukr).xz.mkv
Format : Matroska
Format version : Version 4
File size : 3.01 GiB
Duration : 48 min 51 s
Overall bit rate : 8 831 kb/s
Movie name : Brassic.S04E01.WEB-DL1080p.[Ozz] (Rus, Ukr).xz
Encoded date : UTC 2022-09-15 21:03:24
Writing application : mkvmerge v6.1.0 ('Old Devil') built on Mar 2 2013 14:32:37
Writing library : libebml v1.3.0 + libmatroska v1.4.0

Video
ID : 1
Format : AVC
Format/Info : Advanced Video Codec
Format profile : [email protected]
Format settings : CABAC / 2 Ref Frames
Format settings, CABAC : Yes
Format settings, Reference : 2 frames
Codec ID : V_MPEG4/ISO/AVC
Duration : 48 min 51 s
Bit rate mode : Constant
Bit rate : 7 830 kb/s
Width : 1 920 pixels
Height : 1 080 pixels
Display aspect ratio : 16:9
Frame rate mode : Constant
Frame rate : 25.000 FPS
Color space : YUV
Chroma subsampling : 4:2:0
Bit depth : 8 bits
Scan type : Progressive
Bits/(Pixel*Frame) : 0.151
Stream size : 2.60 GiB (86%)
Title : Brassic.S04E01.WEB-DL1080p.[Ozz] (Rus, Ukr).xz
Language : English
Default : Yes
Forced : No
Statistics Tags Issue : mkvmerge v67.0.0 ('Under Stars') 64-bit 2022-09-15 09:46:45 / mkvmerge v6.1.0 ('Old Devil') built on Mar 2 2013 14:32:37 2022-09-15 21:03:24
FromStats_BitRate : 7803877
FromStats_Duration : 00:48:51.080000000
FromStats_FrameCount : 73277
FromStats_StreamSize : 2859223686
Duration_Source : General_Duration

Audio #1
ID : 2
Format : AC-3
Format/Info : Audio Coding 3
Commercial name : Dolby Digital
Codec ID : A_AC3
Duration : 48 min 51 s
Bit rate mode : Constant
Bit rate : 448 kb/s
Channel(s) : 6 channels
Channel layout : L R C LFE Ls Rs
Sampling rate : 48.0 kHz
Frame rate : 31.250 FPS (1536 SPF)
Compression mode : Lossy
Stream size : 157 MiB (5%)
Title : Ozz TV
Language : Russian
Service kind : Complete Main
Default : No
Forced : No
Duration_Source : General_Duration

Audio #2
ID : 3
Format : AC-3
Format/Info : Audio Coding 3
Commercial name : Dolby Digital
Codec ID : A_AC3
Duration : 48 min 51 s
Bit rate mode : Constant
Bit rate : 384 kb/s
Channel(s) : 6 channels
Channel layout : L R C LFE Ls Rs
Sampling rate : 48.0 kHz
Frame rate : 31.250 FPS (1536 SPF)
Compression mode : Lossy
Stream size : 134 MiB (4%)
Title : Ozz TV
Language : Ukrainian
Service kind : Complete Main
Default : No
Forced : No
Statistics Tags Issue : mkvmerge v67.0.0 ('Under Stars') 64-bit 2022-09-15 09:46:45 / mkvmerge v6.1.0 ('Old Devil') built on Mar 2 2013 14:32:37 2022-09-15 21:03:24
FromStats_BitRate : 384000
FromStats_Duration : 00:48:51.072000000
FromStats_FrameCount : 91596
FromStats_StreamSize : 140691456
Duration_Source : General_Duration

Audio #3
ID : 4
Format : E-AC-3
Format/Info : Enhanced AC-3
Commercial name : Dolby Digital Plus
Codec ID : A_EAC3
Duration : 48 min 51 s
Bit rate mode : Constant
Bit rate : 192 kb/s
Channel(s) : 6 channels
Channel layout : L R C LFE Ls Rs
Sampling rate : 48.0 kHz
Frame rate : 31.250 FPS (1536 SPF)
Compression mode : Lossy
Delay relative to video : 16 ms
Stream size : 67.1 MiB (2%)
Title : Original
Language : English
Service kind : Complete Main
Default : No
Forced : No
Statistics Tags Issue : mkvmerge v67.0.0 ('Under Stars') 64-bit 2022-09-15 09:46:45 / mkvmerge v6.1.0 ('Old Devil') built on Mar 2 2013 14:32:37 2022-09-15 21:03:24
FromStats_BitRate : 192000
FromStats_Duration : 00:48:51.072000000
FromStats_FrameCount : 91596
FromStats_StreamSize : 70345728
Duration_Source : General_Duration

Text #1
ID : 5
Format : UTF-8
Codec ID : S_TEXT/UTF8
Codec ID/Info : UTF-8 Plain Text
Language : Ukrainian
Default : No
Forced : No
Statistics Tags Issue : mkvmerge v67.0.0 ('Under Stars') 64-bit 2022-09-15 09:46:45 / mkvmerge v6.1.0 ('Old Devil') built on Mar 2 2013 14:32:37 2022-09-15 21:03:24
FromStats_BitRate : 135
FromStats_Duration : 00:48:15.040000000
FromStats_FrameCount : 1000
FromStats_StreamSize : 48929

Text #2
ID : 6
Format : UTF-8
Codec ID : S_TEXT/UTF8
Codec ID/Info : UTF-8 Plain Text
Language : English
Default : No
Forced : No
Statistics Tags Issue : mkvmerge v67.0.0 ('Under Stars') 64-bit 2022-09-15 09:46:45 / mkvmerge v6.1.0 ('Old Devil') built on Mar 2 2013 14:32:37 2022-09-15 21:03:24
FromStats_BitRate : 129
FromStats_Duration : 00:48:11.960000000
FromStats_FrameCount : 1173
FromStats_StreamSize : 46991

Text #3
ID : 7
Format : UTF-8
Codec ID : S_TEXT/UTF8
Codec ID/Info : UTF-8 Plain Text
Language : Russian
Default : No
Forced : No
(1) остановить скачивание,
(2) удалить старый торрент у себя из клиента (старые серии удалять не надо),
(3) скачать новый торрент и запустить его у себя в клиенте вместо старого, при этом указать клиенту путь в старую папку куда и должно происходить скачивание новых серий.
Ваш клиент при этом должен произвести хеширование (проверку) старой папки (если не производит сам - помогите ему сделать это), и будет докачивать только те серии которых у вас ещё нет. Старые серии при этом не удаляются, а продолжают раздаваться!
Eсли вы уже удалили старые серии, то предотвратить повторную закачку старых серий можно, отжав галочку в соответсвующих местах при запуске нового торрента. По возможности, желательно не удалять старые серии как можно дольше чтобы релизёр не столько продолжал раздавать старые серии, а смог сконцентрироваться на новых.



Скачать Голяк через торрент https://i120.fastpic.org/big/2022/0915/3b/98c191495966a6fbb4186b3b099f553b.jpg Скачать, смотреть онлайн Голяк бесплантно в хорошем качестве Описание: В центре сюжета оказывается компания приятелей, среди которых особо выделяются страдающий биполярным расстройством Винни и его ... 8.6 10 13
Торрент: Зарегистрирован [2022-09-22 13:20] · скачан: 36 раз
Статус: √ проверено
Размер: 22.56 GB
Как cкачать? Как скачать Голяк через торрент | UTorrent

% Раздел Тема Автор DL S | L
Зарубежные сериалы [ 11.35 GB ] Голяк / Без гроша / Без денег / Brassic / Сезон: 1-3 / Серии: 1-20 из 20 | | DLRip killermax2013 Скачать
1 | 0
Зарубежные сериалы [ 40.67 GB ] Голяк / Без Гроша / Brassic / Сезон: 1-3 / Серии: 1-20 из 20 | | 1080p killermax2013 Скачать
3 | 2
Зарубежные сериалы [ 10.56 GB ] Без гроша / Brassic / Голяк / Сезон: 1-3 / Серии: 1-20 из 20 | TVShows | DLRip killermax2013 Скачать
1 | 0
Фильмы с авторской озвучкой [ 14.24 GB ] Голяк / Без гроша / Без денег / Brassic / Сезон: 1 / Серии: 1-6 из 6 | AVO | 1080p bober100 Скачать
1 | 0
Зарубежные сериалы [ 9.75 GB ] Голяк / Без гроша / Без денег / Brassic / Сезон: 2 / Серии: 1-6 из 6 | | 1080p bober100 Скачать
1 | 0
Зарубежные сериалы [ 3.9 GB ] Без гроша / Голяк / Brassic / Сезон: 2 / Серии: 1-6 из 6 | MVO | HDTVRip 720p killermax2013 Скачать
1 | 0
Зарубежные сериалы [ 6.65 GB ] Без гроша / Brassic / Голяк / Сезон: 1-2 / Серии: 1-12 из 12 | MVO | HDTVRip killermax2013 Скачать
1 | 1



Последний раз редактировалось: killermax2013 (2022-09-22 13:20), всего редактировалось 5 раз(а)

28-11-2019 20:33  

Отключить вcю реклaмy на сайте

16-09-2022 09:25 Голяк Скачать торрент  

Цитата:

Спрашивали — отвечаем. Нового сезона "Голяк" в ближайшее время в озвучке "Кубик в Кубе" не будет.
Такие дела.




16-09-2022 16:54 Голяк Скачать торрент  

Класс! Давно ждал! Писибо!!!



18-09-2022 11:01 Голяк Скачать торрент  

в озвучке кубик в кубе ожидается этот сериал? а то "Пацаны" не нашел в их озвучке на пиратбите
Kkillermax2013 писал(а):


В самом первом посте же написано



19-09-2022 10:51 Голяк Скачать торрент  

[email protected] писал(а):

в озвучке кубик в кубе ожидается этот сериал? а то "Пацаны" не нашел в их озвучке на пиратбите

Скорее всего нет, Британцы частично ушли с рынка РФ, большая часть контента BBC исчезла из онлайн кинотеатров, наверное Sky пошли той же дорогой.



    Дорогой пользователь! Огромная просьба, поблагодарите релизера, оцените раздачу и оставьте свои комментарий, если Вы скачали Голяк через торрент бесплатно!!
    Комментировать посты могут только пользователи прошедшие не сложную регистрацию
    Показать сообщения:    


    Голяк через торрент
    Скачать бесплатно Голяк
    Голяк скачать торрент
    Голяк смотреть онлайн
    Cкачать фильм Голяк бесплатно
    Голяк скачать торрент в хорошем качестве
    Голяк смотреть онлайн бесплатно в хорошем качестве
    Вы не можете начинать темы
    Вы не можете отвечать на сообщения
    Вы не можете редактировать свои сообщения
    Вы не можете удалять свои сообщения
    Вы не можете голосовать в опросах
    Вы не можете прикреплять файлы к сообщениям
    Вы можете скачивать файлы