Доктор Стрэндж

Лицензия

Добыча

Дубляж

Уэнсдэй

1 сезон

Тор

Дубляж

В эфире

Дубляж

Там, где раки поют

MVO

Властелин колец

1 сезон

Deluxe

pack

Рекомендуем

30

Пиратка

ВАЖНО

ВАЖНО

Ghostwire

Пиратка

jed

RePack

nioh2

RePack

RDR2

RePack

NEED FOR SPEED™ PAYBACK

RePack

скачать торрент

Кинопоиск HD

Острые козырьки 6 сезон

6 сезон

FAR CRY 6

RePack

скачать торрент

Лицензия

скачать торрент

MVO

1

1 сезон

скачать торрент

1 сезон

скачать торрент

Лицензия

  

Проклятие матери: Прятки на выживание / Motherly / Daughters (Крэйг Дэвид Уоллес) [2021, Ужасы, триллер, WEB-DLRip-AVC] Дубляж [Akimbo Production / iTunes]

Проклятие матери: Прятки на выживание через торрент pb.wtf

Раздают: 6 [ 0 KB/s ]
Размер: 4.28 GB | Добавлен: 2 мес. 18 д. назад | Торрент скачан:97 раз
Смотреть онлайн | Скачать   

16-09-2022 01:31 Проклятие матери: Прятки на выживание Скачать торрент  

Проклятие матери: Прятки на выживание
Motherly / Daughters

Год выпуска: 2021
Страна: Канада
Студия: Federgreen Entertainment, Lucky Dime Films
Жанр: Ужасы, триллер
Продолжительность: 01:20:40
Перевод: Дублированный | Akimbo Production | iTunes
Субтитры: отсутствуют

Режиссер: Крэйг Дэвид Уоллес

rating

В ролях: Лора Бурк, Тесса Козма, Кристен МакКаллок, Ник Смит, Колин Парадайн, Энджел Галлего, Лора Тремблей, Кристина Брайсон, Иэн Мэлоун

Описание: Спасаясь от призраков прошлого, Кейт c дочерью начинают новую жизнь в уединенном доме на краю леса. Однажды Кейт начинает казаться, что кошмар, проникший в их жизнь в прошлом, возвращается снова. Как далеко она может зайти, чтобы защитить своего ребенка?

Качество: WEB-DLRip-AVC
Формат: MKV

Видео: MPEG-4 AVC, 6830 Kb/s, 1908x792 at 23.976 fps
Аудио: AC3, 48 kHz, 6 ch, ~384.00 kbps avg | русский | Дубляж |
Аудио: AC3, 48 kHz, 6 ch, ~384.00 kbps avg | английский |
скриншот  скриншот  скриншот  скриншот  

Complete name : Proklyatie.materi.Pryatki.na.vyizhivanie.2021.WEB-DL.1080p.mkv
Format : Matroska
Format version : Version 4
File size : 4.28 GiB
Duration : 1 h 20 min
Overall bit rate : 7 598 kb/s
Movie name : Proklyatie.materi.Pryatki.na.vyizhivanie.2021.WEB-DL.1080p
Encoded date : UTC 2022-09-15 13:38:31
Writing application : mkvmerge v8.3.0 ('Over the Horizon') 32bit
Writing library : libebml v1.3.1 + libmatroska v1.4.2

Video
ID : 1
Format : AVC
Format/Info : Advanced Video Codec
Format profile : [email protected]
Format settings : CABAC / 5 Ref Frames
Format settings, CABAC : Yes
Format settings, Reference frames : 5 frames
Codec ID : V_MPEG4/ISO/AVC
Duration : 1 h 20 min
Bit rate : 6 830 kb/s
Width : 1 908 pixels
Height : 792 pixels
Display aspect ratio : 2.40:1
Frame rate mode : Constant
Frame rate : 23.976 (24000/1001) FPS
Color space : YUV
Chroma subsampling : 4:2:0
Bit depth : 8 bits
Scan type : Progressive
Bits/(Pixel*Frame) : 0.189
Stream size : 3.85 GiB (90%)
Default : Yes
Forced : No
Color range : Limited
Color primaries : BT.709
Transfer characteristics : BT.709
Matrix coefficients : BT.709

Audio #1
ID : 2
Format : AC-3
Format/Info : Audio Coding 3
Commercial name : Dolby Digital
Codec ID : A_AC3
Duration : 1 h 20 min
Bit rate mode : Constant
Bit rate : 384 kb/s
Channel(s) : 6 channels
Channel layout : L R C LFE Ls Rs
Sampling rate : 48.0 kHz
Frame rate : 31.250 FPS (1536 SPF)
Compression mode : Lossy
Stream size : 220 MiB (5%)
Title : Дубляж (iTunes)
Language : Russian
Service kind : Complete Main
Default : Yes
Forced : Yes

Audio #2
ID : 3
Format : AC-3
Format/Info : Audio Coding 3
Commercial name : Dolby Digital
Codec ID : A_AC3
Duration : 1 h 20 min
Bit rate mode : Constant
Bit rate : 384 kb/s
Channel(s) : 6 channels
Channel layout : L R C LFE Ls Rs
Sampling rate : 48.0 kHz
Frame rate : 31.250 FPS (1536 SPF)
Compression mode : Lossy
Stream size : 222 MiB (5%)
Title : Original
Language : English
Service kind : Complete Main
Default : No
Forced : No




Скачать Проклятие матери: Прятки на выживание через торрент https://i120.fastpic.org/big/2022/0915/74/7588a56c7942d32485f5b6f8137ca074.jpg Скачать, смотреть онлайн Проклятие матери: Прятки на выживание бесплантно в хорошем качестве Описание: Спасаясь от призраков прошлого, Кейт c дочерью начинают новую жизнь в уединенном доме на краю леса. Однажды Кейт начинает ... 10 10 5
Торрент: Зарегистрирован [2022-09-16 01:31] · скачан: 97 раз
Статус: √ проверено
Размер: 4.28 GB
Как cкачать? Как скачать Проклятие матери: Прятки на выживание через торрент | UTorrent

% Раздел Тема Автор DL S | L
Фильмы 2021 [DVDrip, WEB-DLRip, HDrip] (DUB, MVO) [ 1.3 GB ] Проклятие матери: Прятки на выживание / Motherly / Daughters | iTunes | DLRip-AVC bober100 Скачать
1 | 0
Фильмы 2021 [DVDrip, WEB-DLRip, HDrip] (DUB, MVO) [ 1.46 GB ] Проклятие матери: Прятки на выживание / Motherly / Daughters | iTunes | DLRip bober100 Скачать
1 | 0

28-11-2019 20:33  


Отключить вcю реклaмy на сайте, в т.ч. и в плеере онлайн просмотра!

    Дорогой пользователь! Огромная просьба, поблагодарите релизера, оцените раздачу и оставьте свои комментарий, если Вы скачали Проклятие матери: Прятки на выживание через торрент бесплатно!!
    Комментировать посты могут только пользователи прошедшие не сложную регистрацию
    Показать сообщения:    


    Проклятие матери: Прятки на выживание через торрент
    Скачать бесплатно Проклятие матери: Прятки на выживание
    Проклятие матери: Прятки на выживание скачать торрент
    Проклятие матери: Прятки на выживание смотреть онлайн
    Cкачать фильм Проклятие матери: Прятки на выживание бесплатно
    Проклятие матери: Прятки на выживание скачать торрент в хорошем качестве
    Проклятие матери: Прятки на выживание смотреть онлайн бесплатно в хорошем качестве
    Вы не можете начинать темы
    Вы не можете отвечать на сообщения
    Вы не можете редактировать свои сообщения
    Вы не можете удалять свои сообщения
    Вы не можете голосовать в опросах
    Вы не можете прикреплять файлы к сообщениям
    Вы можете скачивать файлы
    Проклятие матери: Прятки на выживание / Motherly / Daughters [2021, Ужасы, триллер, WEB-DLRip-AVC] Дубляж [Akimbo Production / iTunes] смотреть онлайн, скачать торрент picoco.icu