Доктор Стрэндж

Лицензия

Добыча

Дубляж

Дом дракона

1 сезон

Тор

Дубляж

В эфире

Дубляж

Там, где раки поют

MVO

Властелин колец

1 сезон

Deluxe

pack

Рекомендуем

30

Пиратка

ВАЖНО

ВАЖНО

Ghostwire

Пиратка

jed

RePack

nioh2

RePack

RDR2

RePack

NEED FOR SPEED™ PAYBACK

RePack

скачать торрент

Кинопоиск HD

Острые козырьки 6 сезон

6 сезон

FAR CRY 6

RePack

скачать торрент

Лицензия

скачать торрент

MVO

1

1 сезон

скачать торрент

1 сезон

скачать торрент

Лицензия

  

Рассказ служанки / The Handmaid's Tale / Сезон: 5 / Серии: 1-5 из 10 (Рид Морано, Майк Баркер) [2022, Фантастика, триллер, драма, WEB-DL 1080p] MVO [HDRezka]

Рассказ служанки через торрент pb.wtf

Раздают: 3 [ 35 KB/s ] Качают: 1 [ 0 KB/s ]
Размер: 14.48 GB | Добавлен: 1 мес. 26 д. назад | Торрент скачан:29 раз
Смотреть онлайн | Скачать   

16-09-2022 02:56 Рассказ служанки Скачать торрент  

Рассказ служанки | The Handmaid's Tale
«We will bear no more»
Год выпуска: 2022
Страна: США
Студия: MGM Television
Жанр: Фантастика, триллер, драма
Продолжительность: ~ 00:55:00 серия
Премьера (мир): 24 апреля 2017
Премьера (РФ): 27 апреля 2017
Перевод: Профессиональный (многоголосый закадровый) | HDRezka
Субтитры: Русские (Forced), английские (Full, SDH)

Режиссёр: Рид Морано, Майк Баркер

В ролях: Элизабет Мосс (Elisabeth Moss), Ивонн Страховски (Yvonne Strahovski), Джозеф Файнс (Joseph Fiennes), Энн Дауд (Ann Dowd), Мадлен Брюэр (Madeline Brewer), Аманда Бругел (Amanda Brugel), Макс Мингелла (Max Minghella), О. Т. Фагбенли (O-T Fagbenle), Самира Уайли (Samira Wiley), Нина Кири (Nina Kiri), Алексис Бледел (Alexis Bledel)

Описание: Действие разворачивается в будущем, в республике Гилеад, где у власти стоят военные. В стране жестокие порядки и нравы, уважением в обществе пользуются только офицеры и их жёны. Помимо тоталитарного устройства общества, в мире будущего есть серьёзная проблема — бесплодие. Лишь каждая сотая женщина способна к воспроизведению потомства. Чтобы продолжить офицерский род, семьи берут в дом служанку — суррогатную мать из числа простых женщин, способных к деторождению. Исполнив долг, служанка должна расстаться со своим ребёнком и перейти на службу к новым хозяевам.

rating

Качество: WEB-DL 1080p
Формат: MKV

Видео: 1920x960 (2,000), 23,976 fps, AVC (х264), [email protected], ~7169 kbps avg, 0.162 bit/pixel
Аудио RUS: 48 kHz, AC3, 3/2 (L,C,R,l,r) + LFE ch, ~448 kbps avg
Аудио ENG: 48 kHz, E-AC3, 3/2 (L,C,R,l,r) + LFE ch, ~640 kbps avg

Общее
Уникальный идентификатор : 335397143600791161102631650530867265697 (0xFC5323E4F38E3803DFEB231D55FFC0A1)
Полное имя : The.Handmaids.Tale.2022.S05E01.WEB-DL.1080p.AMZN.HDRezka.STUDIO.mkv
Формат : Matroska
Версия формата : Version 4
Размер файла : 3,27 Гбайт
Продолжительность : 56 м. 37 с.
Общий поток : 8 259 Кбит/сек
Дата кодирования : UTC 2022-09-15 16:26:53
Программа кодирования : mkvmerge v68.0.0 ('The Curtain') 64-bit
Библиотека кодирования : libebml v1.4.2 + libmatroska v1.6.4

Видео
Идентификатор : 1
Формат : AVC
Формат/Информация : Advanced Video Codec
Профиль формата : [email protected]
Настройки формата : CABAC / 4 Ref Frames
Параметр CABAC формата : Да
Параметр RefFrames формата : 4 кадра
Идентификатор кодека : V_MPEG4/ISO/AVC
Продолжительность : 56 м. 37 с.
Вид битрейта : Постоянный
Битрейт : 7 169 Кбит/сек
Номинальный битрейт : 10 000 Кбит/сек
Ширина : 1 920 пикселей
Высота : 960 пикселей
Соотношение сторон : 2,000
Режим частоты кадров : Постоянный
Частота кадров : 23,976 (24000/1001) кадра/сек
Цветовое пространство : YUV
Субдискретизация насыщенности : 4:2:0
Битовая глубина : 8 бит
Тип развёртки : Прогрессивная
Бит/(Пиксели*Кадры) : 0.162
Размер потока : 2,84 Гбайт (87%)
Default : Да
Forced : Нет
Цветовой диапазон : Limited
Основные цвета : BT.709
Характеристики трансфера : BT.709
Коэффициенты матрицы : BT.709

Аудио #1
Идентификатор : 2
Формат : AC-3
Формат/Информация : Audio Coding 3
Коммерческое название : Dolby Digital
Идентификатор кодека : A_AC3
Продолжительность : 56 м. 37 с.
Вид битрейта : Постоянный
Битрейт : 448 Кбит/сек
Каналы : 6 каналов
Channel layout : L R C LFE Ls Rs
Частота : 48,0 КГц
Частота кадров : 31,250 кадров/сек (1536 SPF)
Метод сжатия : С потерями
Размер потока : 181 Мбайт (5%)
Язык : Russian
Default : Да
Forced : Нет

Аудио #2
Идентификатор : 3
Формат : E-AC-3
Формат/Информация : Enhanced AC-3
Коммерческое название : Dolby Digital Plus
Идентификатор кодека : A_EAC3
Продолжительность : 56 м. 37 с.
Вид битрейта : Постоянный
Битрейт : 640 Кбит/сек
Каналы : 6 каналов
Channel layout : L R C LFE Ls Rs
Частота : 48,0 КГц
Частота кадров : 31,250 кадров/сек (1536 SPF)
Метод сжатия : С потерями
Размер потока : 259 Мбайт (8%)
Язык : English
Default : Нет
Forced : Нет

Текст #1
Идентификатор : 4
Формат : UTF-8
Идентификатор кодека : S_TEXT/UTF8
Идентификатор кодека/Информация : UTF-8 Plain Text
Продолжительность : 31 м. 4 с.
Битрейт : 0 бит/сек
Частота кадров : 0,002 кадр/сек
Count of elements : 3
Размер потока : 148 байт (0%)
Заголовок : Forced
Язык : Russian
Default : Нет
Forced : Нет

Текст #2
Идентификатор : 5
Формат : UTF-8
Идентификатор кодека : S_TEXT/UTF8
Идентификатор кодека/Информация : UTF-8 Plain Text
Продолжительность : 54 м. 35 с.
Битрейт : 44 бит/сек
Частота кадров : 0,203 кадр/сек
Count of elements : 666
Размер потока : 18,0 Кбайт (0%)
Язык : English
Default : Нет
Forced : Нет

Текст #3
Идентификатор : 6
Формат : UTF-8
Идентификатор кодека : S_TEXT/UTF8
Идентификатор кодека/Информация : UTF-8 Plain Text
Продолжительность : 54 м. 35 с.
Битрейт : 50 бит/сек
Частота кадров : 0,219 кадр/сек
Count of elements : 717
Размер потока : 20,0 Кбайт (0%)
Заголовок : SDH
Язык : English
Default : Нет
Forced : Нет

Внимание! Раздача ведётся путём добавления новых серий; при каждом добавлении создаётся новый торрент.
Чтобы начать докачку новой серии, пользователям необходимо сделать следующее:
1. Остановить скачивание;
2. Удалить старый торрент у себя из клиента (старые серии удалять не надо);
3. Скачать новый торрент и запустить его у себя в клиенте вместо старого, при этом указать клиенту путь в старую папку куда и должно происходить скачивание новых серий. Ваш клиент при этом должен произвести хеширование (проверку) старой папки и будет докачивать только те серии, которых у вас ещё нет. Старые серии при этом не удаляются, а продолжают раздаваться! Eсли вы уже удалили старые серии, то предотвратить повторную закачку старых серий можно, отжав галочку в соответствующих местах при запуске нового торрента.




Скачать Рассказ служанки через торрент https://i120.fastpic.org/big/2022/0916/02/0fd7dfff9dde81707029cd26e4a6d302.jpeg Скачать, смотреть онлайн Рассказ служанки бесплантно в хорошем качестве Описание: Действие разворачивается в будущем, в республике Гилеад, где у власти стоят военные. В стране жестокие порядки и нравы, уважением ... 7.8 10 4
Торрент: Зарегистрирован [2022-10-07 12:24] · скачан: 29 раз
Статус: √ проверено
Размер: 14.48 GB
Как cкачать? Как скачать Рассказ служанки через торрент | UTorrent

% Раздел Тема Автор DL S | L
Зарубежные сериалы [ 4.36 GB ] Рассказ служанки / The Handmaid's Tale / Сезон: 1 / Серии: 1-10 из 10 | LostFilm | WEBRip bober100 Скачать
1 | 1
Зарубежные сериалы [ 58.82 GB ] Рассказ служанки / The Handmaid's Tale / Сезон: 1 / Серии: 1-10 из 10 | LostFilm | 2160p sheker187 Скачать
1 | 0
Зарубежные сериалы [ 77.51 GB ] Рассказ служанки / The Handmaid's Tale / Сезон: 2 / Серии: 1-13 из 13 | NewStudio | 2160p sheker187 Скачать
1 | 0
Зарубежные сериалы [ 9.26 GB ] Рассказ служанки / The Handmaid's Tale / Сезон: 3 / Серии: 1-13 из 13 | LostFilm | DLRip bober100 Скачать
1 | 0
Зарубежные сериалы [ 8.82 GB ] Рассказ служанки / The Handmaid's Tale / Сезон: 2 / Серии: 1-13 из 13 | Jaskier | 720p bober100 Скачать
1 | 0

28-11-2019 20:33  


Отключить вcю реклaмy на сайте, в т.ч. и в плеере онлайн просмотра!

    Дорогой пользователь! Огромная просьба, поблагодарите релизера, оцените раздачу и оставьте свои комментарий, если Вы скачали Рассказ служанки через торрент бесплатно!!
    Комментировать посты могут только пользователи прошедшие не сложную регистрацию
    Показать сообщения:    


    Рассказ служанки через торрент
    Скачать бесплатно Рассказ служанки
    Рассказ служанки скачать торрент
    Рассказ служанки смотреть онлайн
    Cкачать фильм Рассказ служанки бесплатно
    Рассказ служанки скачать торрент в хорошем качестве
    Рассказ служанки смотреть онлайн бесплатно в хорошем качестве
    Вы не можете начинать темы
    Вы не можете отвечать на сообщения
    Вы не можете редактировать свои сообщения
    Вы не можете удалять свои сообщения
    Вы не можете голосовать в опросах
    Вы не можете прикреплять файлы к сообщениям
    Вы можете скачивать файлы
    Рассказ служанки / The Handmaid's Tale / Сезон: 5 / Серии: 1-5 из 10 [2022, Фантастика, триллер, драма, WEB-DL 1080p] MVO [HDRezka] смотреть онлайн, скачать торрент picoco.icu