Лицензия

MVO

1

1 сезон

Лицензия

Лицензия

13

MVO

1 сезон

Deluxe Edition

pack

Рекомендуем

30

Repack

ВАЖНО

ВАЖНО

Ghostwire

RePack

jed

RePack

fifa19

RePack

RDR2

RePack

NEED FOR SPEED™ PAYBACK

RePack

Кинопоиск HD

 Острые козырьки 6 сезон

6 сезон

FAR CRY 6

RePack

Лицензия

MVO

1

1 сезон

1 сезон

Лицензия

  

Три тысячи лет желаний / Three Thousand Years of Longing (Джордж Миллер) [2022, Фэнтези, драма, мелодрама, WEB-DL 1080p] 2xMVO [Jaskier, TVShows]

Три тысячи лет желаний через торрент pb.wtf

Раздают: 39 [ 927 KB/s ] Качают: 4 [ 4 MB/s ]
Размер: 7.03 GB | Добавлен: 6 д. назад | Торрент скачан:476 раз
Смотреть онлайн Три тысячи лет желаний | Скачать   

16-09-2022 06:06 Три тысячи лет желаний Скачать торрент  

Три тысячи лет желаний
Three Thousand Years of Longing

Год выпуска: 2022
Выпущено: CAA Media Finance, Elevate Production Finance, FilmNation Entertainment, Kennedy Miller Mitchell, Kennedy Miller Productions, Metro-Goldwyn-Mayer (MGM)
Страна: Австралия, США
Жанр: Фэнтези, драма, мелодрама
Продолжительность: 01:48:21
Перевод:
Профессиональный (многоголосый) | Jaskier
Профессиональный (многоголосый) | TVShows
Субтитры: Русские (Full / feofanio), английские (Forced hardsub, Full, SDH)

Режиссер: Джордж Миллер

rating

В ролях: Тильда Суинтон, Идрис Эльба, Пиа Тандерболт, Берк Озтюрк, Энтони Муассе, Алила Браун, Сэйдж Макконнелл, Абель Бонд, Агани Гечмез, Аянту Усман

Описание: Вот уже три тысячи лет перед глазами Джинна проносятся эпохи, целые цивилизации и погубленные страстями династии. Хозяева его сосуда сменялись, но так и не успевали освободить Джинна. Наконец, в наши дни его судьба оказывается в руках Алетейи - выдающейся ученой в области литературы. Однако она знает, чем обычно заканчиваются истории про джиннов, а потому не торопится загадывать свои три желания. Это невероятное знакомство позволит им обоим посмотреть на мир совершенно по-новому и подарит обоим куда большее, чем они могли пожелать.

Качество: WEB-DL 1080p
Формат: MKV

Видео: MPEG-4 AVC, AVC/H.264, 1920x800, ~7874 kbps
Аудио 1: AC3, 6 ch, ~384 kbps - | Русский | | Jaskier
Аудио 2: AC3, 6 ch, ~384 kbps - | Русский | | TVShows
Аудио 3: E-AC3, 6 ch, ~640 kbps - | Английский | | Original
скриншот  скриншот  скриншот  скриншот  скриншот  скриншот  

Общее
Уникальный идентификатор : 151683617116450867319232984992631265943 (0x721D33B81744BDE5C18F5E9CBB449A97)
Полное имя : G:Three Thousand Years of Longing (2022) WEB-DL.1080p.mkv
Формат : Matroska
Версия формата : Version 4
Размер файла : 7,03 Гбайт
Продолжительность : 1 ч. 48 м.
Общий поток : 9 283 Кбит/сек
Название фильма : Three Thousand Years of Longing (2022)
Дата кодирования : UTC 2022-09-17 13:25:35
Программа кодирования : mkvmerge v51.0.0 ('I Wish') 64-bit
Библиотека кодирования : libebml v1.4.0 + libmatroska v1.6.2

Видео
Идентификатор : 1
Формат : AVC
Формат/Информация : Advanced Video Codec
Профиль формата : [email protected]
Настройки формата : CABAC / 4 Ref Frames
Параметр CABAC формата : Да
Параметр RefFrames формата : 4 кадра
Идентификатор кодека : V_MPEG4/ISO/AVC
Продолжительность : 1 ч. 48 м.
Вид битрейта : Постоянный
Битрейт : 7 874 Кбит/сек
Номинальный битрейт : 10 000 Кбит/сек
Ширина : 1 920 пикселей
Высота : 800 пикселей
Соотношение сторон : 2,40:1
Режим частоты кадров : Постоянный
Частота кадров : 23,976 (24000/1001) кадра/сек
Цветовое пространство : YUV
Субдискретизация насыщенности : 4:2:0
Битовая глубина : 8 бит
Тип развёртки : Прогрессивная
Бит/(Пиксели*Кадры) : 0.214
Размер потока : 5,96 Гбайт (85%)
Заголовок : Three Thousand Years of Longing (2022)
Язык : English
Default : Да
Forced : Нет
Цветовой диапазон : Limited
Основные цвета : BT.709
Характеристики трансфера : BT.709
Коэффициенты матрицы : BT.709

Аудио #1
Идентификатор : 2
Формат : AC-3
Формат/Информация : Audio Coding 3
Коммерческое название : Dolby Digital
Идентификатор кодека : A_AC3
Продолжительность : 1 ч. 48 м.
Вид битрейта : Постоянный
Битрейт : 384 Кбит/сек
Каналы : 6 каналов
Channel layout : L R C LFE Ls Rs
Частота : 48,0 КГц
Частота кадров : 31,250 кадров/сек (1536 SPF)
Метод сжатия : С потерями
Размер потока : 298 Мбайт (4%)
Заголовок : MVO Jaskier
Язык : Russian
Service kind : Complete Main
Default : Да
Forced : Нет

Аудио #2
Идентификатор : 3
Формат : AC-3
Формат/Информация : Audio Coding 3
Коммерческое название : Dolby Digital
Идентификатор кодека : A_AC3
Продолжительность : 1 ч. 48 м.
Вид битрейта : Постоянный
Битрейт : 384 Кбит/сек
Каналы : 6 каналов
Channel layout : L R C LFE Ls Rs
Частота : 48,0 КГц
Частота кадров : 31,250 кадров/сек (1536 SPF)
Метод сжатия : С потерями
Размер потока : 298 Мбайт (4%)
Заголовок : MVO TVShows
Язык : Russian
Service kind : Complete Main
Default : Нет
Forced : Нет

Аудио #3
Идентификатор : 4
Формат : E-AC-3
Формат/Информация : Enhanced AC-3
Коммерческое название : Dolby Digital Plus
Идентификатор кодека : A_EAC3
Продолжительность : 1 ч. 48 м.
Вид битрейта : Постоянный
Битрейт : 640 Кбит/сек
Каналы : 6 каналов
Channel layout : L R C LFE Ls Rs
Частота : 48,0 КГц
Частота кадров : 31,250 кадров/сек (1536 SPF)
Метод сжатия : С потерями
Размер потока : 496 Мбайт (7%)
Язык : English
Service kind : Complete Main
Default : Нет
Forced : Нет

Текст #1
Идентификатор : 5
Формат : UTF-8
Идентификатор кодека : S_TEXT/UTF8
Идентификатор кодека/Информация : UTF-8 Plain Text
Продолжительность : 1 ч. 39 м.
Битрейт : 91 бит/сек
Count of elements : 1324
Размер потока : 66,4 Кбайт (0%)
Заголовок : full
Язык : Russian
Default : Да
Forced : Нет

Текст #2
Идентификатор : 6
Формат : UTF-8
Идентификатор кодека : S_TEXT/UTF8
Идентификатор кодека/Информация : UTF-8 Plain Text
Продолжительность : 1 ч. 39 м.
Битрейт : 49 бит/сек
Count of elements : 1248
Размер потока : 35,9 Кбайт (0%)
Язык : English
Default : Нет
Forced : Нет

Текст #3
Идентификатор : 7
Формат : UTF-8
Идентификатор кодека : S_TEXT/UTF8
Идентификатор кодека/Информация : UTF-8 Plain Text
Продолжительность : 1 ч. 39 м.
Битрейт : 60 бит/сек
Count of elements : 1562
Размер потока : 44,4 Кбайт (0%)
Заголовок : SDH
Язык : English
Default : Нет
Forced : Нет




Скачать Три тысячи лет желаний через торрент https://i.postimg.cc/NF642Cq5/Three-Thousand-Years-of-Longing-film.jpg Скачать, смотреть онлайн Три тысячи лет желаний бесплантно в хорошем качестве Описание: Вот уже три тысячи лет перед глазами Джинна проносятся эпохи, целые цивилизации и погубленные страстями династии. Хозяева его ... 9.6 10 30
Торрент: Зарегистрирован [2022-09-18 08:21] · скачан: 476 раз
Статус: √ проверено
Размер: 7.03 GB
Как cкачать? Как скачать Три тысячи лет желаний через торрент | UTorrent

% Раздел Тема Автор DL S | L
Фильмы 2022 [DVDrip, WEB-DLRip, HDrip] (DUB, MVO) [ 2.15 GB ] Три тысячи лет желаний / Three Thousand Years of Longing | Jaskier | DLRip-AVC bober100 Скачать
24 | 0
Фильмы 2022 [DVDrip, WEB-DLRip, HDrip] (DUB, MVO) [ 2.51 GB ] Три тысячи лет желаний / Three Thousand Years of Longing | Jaskier | DLRip-AVC Lithuania Скачать
5 | 2
Фильмы (WEB-DL 720p, 1080p) [ 3.32 GB ] Три тысячи лет желаний / Three Thousand Years of Longing | Jaskier | 720p bober100 Скачать
15 | 0



Последний раз редактировалось: bober100 (2022-09-18 08:21), всего редактировалось 1 раз

28-11-2019 20:33  

Отключить вcю реклaмy на сайте

19-09-2022 09:27 Три тысячи лет желаний Скачать торрент  

О темный властелин оооооо



20-09-2022 12:09 Три тысячи лет желаний Скачать торрент  

Неглупый совсем, хороший фильм о людях и о любви. Не сказка и не фэнтези, не комедия, не ужасы, не экшн. )



    Дорогой пользователь! Огромная просьба, поблагодарите релизера, оцените раздачу и оставьте свои комментарий, если Вы скачали Три тысячи лет желаний через торрент бесплатно!!
    Комментировать посты могут только пользователи прошедшие не сложную регистрацию
    Показать сообщения:    


    Три тысячи лет желаний через торрент
    Скачать бесплатно Три тысячи лет желаний
    Три тысячи лет желаний скачать торрент
    Три тысячи лет желаний смотреть онлайн
    Cкачать фильм Три тысячи лет желаний бесплатно
    Три тысячи лет желаний скачать торрент в хорошем качестве
    Три тысячи лет желаний смотреть онлайн бесплатно в хорошем качестве
    Вы не можете начинать темы
    Вы не можете отвечать на сообщения
    Вы не можете редактировать свои сообщения
    Вы не можете удалять свои сообщения
    Вы не можете голосовать в опросах
    Вы не можете прикреплять файлы к сообщениям
    Вы можете скачивать файлы