Лицензия

MVO

1

1 сезон

Лицензия

Лицензия

13

MVO

1 сезон

Deluxe Edition

pack

Рекомендуем

30

Repack

ВАЖНО

ВАЖНО

Ghostwire

RePack

jed

RePack

fifa19

RePack

RDR2

RePack

NEED FOR SPEED™ PAYBACK

RePack

Кинопоиск HD

 Острые козырьки 6 сезон

6 сезон

FAR CRY 6

RePack

Лицензия

MVO

1

1 сезон

1 сезон

Лицензия

  

Нечего терять / Разрыв / Breaking / 892 (Эби Дамарис Корбин) [2022, Триллер, драма, криминал, WEB-DLRip-AVC] MVO [Jaskier]

Нечего терять через торрент pb.wtf

Раздают: 6 [ 897 KB/s ]
Размер: 1.46 GB | Добавлен: 7 д. назад | Торрент скачан:123 раза
Смотреть онлайн Нечего терять | Скачать   

17-09-2022 20:40 Нечего терять Скачать торрент  

Нечего терять / Разрыв
Breaking / 892

Год выпуска: 2022
Страна: США
Выпущено: Salmira Productions, Little Lamb, Upper, Room Productions
Жанр: Триллер, драма, криминал
Продолжительность: 01:43:22
Перевод: Профессиональный (многоголосый) | Jaskier
Субтитры: отсутствуют

Режиссер: Эби Дамарис Корбин

rating

В ролях: Джон Бойега, Николь Бахари, Селенис Лейва, Майкл Кеннет Уильямс, Конни Бриттон, Джеффри Донован, Лондон Ковингтон, Робб Дерринджер, Кармине Джовинаццо, Кейт Бёртон

Описание: Ветерану морской пехоты Брайану Брауну-Исли было отказано в поддержке со стороны Департамента по делам ветеранов США. Преисполнившись решимости восстановить справедливость, он решает захватить банк в пригороде Атланты, чтобы привлечь внимание к своей проблеме.

Качество: WEB-DLRip-AVC
Формат: MKV

Видео: MPEG-4 AVC, 1076x450 (2,40:1), 1573 kbps, 23,976 fps
Аудио: 48 kHz, AC3 Dolby Digital, 3/2 (L, C, R, l, r) + LFE ch, ~448 Kbps
скриншот  скриншот  скриншот  скриншот  

Общее
Уникальный идентификатор : 103537473263904483043286556339795398360 (0x4DE4978E21D53C6394C38CE64F500ED8)
Полное имя : D:Breaking.2022.RUS.WEB-DLRip.x264.ExKinoRay.mkv
Формат : Matroska
Версия формата : Version 4
Размер файла : 1,46 Гбайт
Продолжительность : 1 ч. 43 м.
Общий поток : 2 019 Кбит/сек
Название фильма : Breaking / 892 (2022)
Дата кодирования : UTC 2022-09-17 14:10:40
Программа кодирования : mkvmerge v62.0.0 ('Apollo') 64-bit
Библиотека кодирования : libebml v1.4.2 + libmatroska v1.6.4

Видео
Идентификатор : 1
Формат : AVC
Формат/Информация : Advanced Video Codec
Профиль формата : [email protected]
Настройки формата : CABAC / 12 Ref Frames
Параметр CABAC формата : Да
Параметр RefFrames формата : 12 кадров
Идентификатор кодека : V_MPEG4/ISO/AVC
Продолжительность : 1 ч. 43 м.
Битрейт : 1 573 Кбит/сек
Ширина : 1 076 пикселей
Высота : 450 пикселей
Соотношение сторон : 2,40:1
Режим частоты кадров : Постоянный
Частота кадров : 23,976 (24000/1001) кадра/сек
Цветовое пространство : YUV
Субдискретизация насыщенности : 4:2:0
Битовая глубина : 8 бит
Тип развёртки : Прогрессивная
Бит/(Пиксели*Кадры) : 0.135
Размер потока : 1,13 Гбайт (78%)
Заголовок : potroks
Библиотека кодирования : x264 core 163
Настройки программы : cabac=1 / ref=12 / deblock=1:-2:-2 / analyse=0x3:0x133 / me=umh / subme=11 / psy=1 / psy_rd=1.00:0.05 / mixed_ref=1 / me_range=32 / chroma_me=0 / trellis=2 / 8x8dct=1 / cqm=0 / deadzone=21,11 / fast_pskip=0 / chroma_qp_offset=-3 / threads=19 / lookahead_threads=3 / sliced_threads=0 / nr=0 / decimate=1 / interlaced=0 / bluray_compat=0 / constrained_intra=0 / bframes=10 / b_pyramid=2 / b_adapt=2 / b_bias=0 / direct=0 / weightb=1 / open_gop=0 / weightp=2 / keyint=240 / keyint_min=23 / scenecut=40 / intra_refresh=0 / rc_lookahead=100 / rc=2pass / mbtree=0 / bitrate=1573 / ratetol=1.0 / qcomp=0.70 / qpmin=0 / qpmax=69 / qpstep=5 / cplxblur=20.0 / qblur=0.5 / vbv_maxrate=50000 / vbv_bufsize=62500 / nal_hrd=none / filler=0 / ip_ratio=1.40 / pb_ratio=1.30 / aq=1:0.80
Язык : English
Default : Да
Forced : Нет
Цветовой диапазон : Limited
Основные цвета : BT.709
Характеристики трансфера : BT.709
Коэффициенты матрицы : BT.709

Аудио
Идентификатор : 2
Формат : AC-3
Формат/Информация : Audio Coding 3
Коммерческое название : Dolby Digital
Идентификатор кодека : A_AC3
Продолжительность : 1 ч. 43 м.
Вид битрейта : Постоянный
Битрейт : 448 Кбит/сек
Каналы : 6 каналов
Channel layout : L R C LFE Ls Rs
Частота : 48,0 КГц
Частота кадров : 31,250 кадров/сек (1536 SPF)
Битовая глубина : 16 бит
Метод сжатия : С потерями
Размер потока : 331 Мбайт (22%)
Заголовок : MVO | DD 5.1 @ 448 kbps - Jaskier
Язык : Russian
Service kind : Complete Main
Default : Да
Forced : Нет

Меню
00:00:00.000 : :Chapter 01
00:07:04.341 : :Chapter 02
00:15:42.484 : :Chapter 03
00:24:55.995 : :Chapter 04
00:35:15.114 : :Chapter 05
00:44:38.261 : :Chapter 06
00:56:43.486 : :Chapter 07
01:07:18.788 : :Chapter 08
01:18:02.891 : :Chapter 09
01:27:35.422 : :Chapter 10
01:37:17.253 : :Chapter 11




Скачать Нечего терять через торрент https://i4-imageban-ru.translate.goog/out/2022/09/17/eed147f4a9116473f0ebd81fb1827cd4.jpg Скачать, смотреть онлайн Нечего терять бесплантно в хорошем качестве Описание: Ветерану морской пехоты Брайану Брауну-Исли было отказано в поддержке со стороны Департамента по делам ветеранов США. ... 10 10 7
Торрент: Зарегистрирован [2022-09-17 20:40] · скачан: 123 раз
Статус: √ проверено
Размер: 1.46 GB
Как cкачать? Как скачать Нечего терять через торрент | UTorrent

% Раздел Тема Автор DL S | L
Фильмы (WEB-DL 720p, 1080p) [ 2.92 GB ] Нечего терять / Разрыв / Breaking / 892 | Jaskier | 720p bober100 Скачать
11 | 0

28-11-2019 20:33  

Отключить вcю реклaмy на сайте

18-09-2022 13:10 Нечего терять Скачать торрент  

Херня



22-09-2022 23:09 Нечего терять Скачать торрент  

Говнище полное, не советую потеряете время



    Дорогой пользователь! Огромная просьба, поблагодарите релизера, оцените раздачу и оставьте свои комментарий, если Вы скачали Нечего терять через торрент бесплатно!!
    Комментировать посты могут только пользователи прошедшие не сложную регистрацию
    Показать сообщения:    


    Нечего терять через торрент
    Скачать бесплатно Нечего терять
    Нечего терять скачать торрент
    Нечего терять смотреть онлайн
    Cкачать фильм Нечего терять бесплатно
    Нечего терять скачать торрент в хорошем качестве
    Нечего терять смотреть онлайн бесплатно в хорошем качестве
    Вы можете начинать темы
    Вы можете отвечать на сообщения
    Вы не можете редактировать свои сообщения
    Вы не можете удалять свои сообщения
    Вы не можете голосовать в опросах
    Вы не можете прикреплять файлы к сообщениям
    Вы можете скачивать файлы