Доктор Стрэндж

Лицензия

Добыча

Дубляж

Уэнсдэй

1 сезон

Тор

Дубляж

В эфире

Дубляж

Там, где раки поют

MVO

Властелин колец

1 сезон

Deluxe

pack

Рекомендуем

30

Пиратка

ВАЖНО

ВАЖНО

Ghostwire

Пиратка

jed

RePack

nioh2

RePack

RDR2

RePack

NEED FOR SPEED™ PAYBACK

RePack

скачать торрент

Кинопоиск HD

Острые козырьки 6 сезон

6 сезон

FAR CRY 6

RePack

скачать торрент

Лицензия

скачать торрент

MVO

1

1 сезон

скачать торрент

1 сезон

скачать торрент

Лицензия

  

Нечего терять / Разрыв / Breaking / 892 (Эби Дамарис Корбин) [2022, Триллер, драма, криминал, WEB-DL 720p] MVO [Jaskier]

Нечего терять через торрент pb.wtf

Раздают: 5 [ 0 KB/s ]
Размер: 2.92 GB | Добавлен: 2 мес. 16 д. назад | Торрент скачан:161 раз
Смотреть онлайн | Скачать   

17-09-2022 20:47 Нечего терять Скачать торрент  

Нечего терять / Разрыв
Breaking / 892

Год выпуска: 2022
Страна: США
Выпущено: Salmira Productions, Little Lamb, Upper, Room Productions
Жанр: Триллер, драма, криминал
Продолжительность: 01:43:22
Перевод: Профессиональный (многоголосый) | Jaskier
Субтитры: Английские, испанские

Режиссер: Эби Дамарис Корбин

rating

В ролях: Джон Бойега, Николь Бахари, Селенис Лейва, Майкл Кеннет Уильямс, Конни Бриттон, Джеффри Донован, Лондон Ковингтон, Робб Дерринджер, Кармине Джовинаццо, Кейт Бёртон

Описание: Ветерану морской пехоты Брайану Брауну-Исли было отказано в поддержке со стороны Департамента по делам ветеранов США. Преисполнившись решимости восстановить справедливость, он решает захватить банк в пригороде Атланты, чтобы привлечь внимание к своей проблеме.

Качество: WEB-DL 720p
Формат: MKV

Видео: MPEG-4 AVC, 1482x620 at 23.976 fps, [email protected], ~2820 kbps
Аудио 1: AC3, 6 ch, ~448 kbps - | Русский |
Аудио 2: E-AC-3 JOC, 6 ch, ~768 kbps - | Английский |
скриншот  скриншот  скриншот  скриншот  

General
Unique ID : 4665920785802102680637356521696083894 (0x3829FA7EA9BB001EFFB18B24E593FB6)
Complete name : D:Breaking.2022.WEB-DL.720p.x264.seleZen.mkv
Format : Matroska
Format version : Version 4
File size : 2.92 GiB
Duration : 1 h 43 min
Overall bit rate : 4 039 kb/s
Movie name : Breaking.2022.WEB-DL.720p.x264.seleZen
Encoded date : UTC 2022-09-17 10:13:50
Writing application : mkvmerge v70.0.0 ('Caught A Lite Sneeze') 64-bit
Writing library : libebml v1.4.2 + libmatroska v1.6.4
Cover : Yes
Attachments : cover.jpg / small_cover.jpg

Video
ID : 1
Format : AVC
Format/Info : Advanced Video Codec
Format profile : [email protected]
Format settings : CABAC / 5 Ref Frames
Format settings, CABAC : Yes
Format settings, Reference : 5 frames
Codec ID : V_MPEG4/ISO/AVC
Duration : 1 h 43 min
Bit rate : 2 820 kb/s
Width : 1 482 pixels
Height : 620 pixels
Display aspect ratio : 2.40:1
Frame rate mode : Constant
Frame rate : 23.976 (24000/1001) FPS
Color space : YUV
Chroma subsampling : 4:2:0
Bit depth : 8 bits
Scan type : Progressive
Bits/(Pixel*Frame) : 0.128
Stream size : 2.04 GiB (70%)
Language : English
Default : Yes
Forced : No
Color range : Limited
Color primaries : BT.709
Transfer characteristics : BT.709
Matrix coefficients : BT.709

Audio #1
ID : 2
Format : AC-3
Format/Info : Audio Coding 3
Commercial name : Dolby Digital
Codec ID : A_AC3
Duration : 1 h 43 min
Bit rate mode : Constant
Bit rate : 448 kb/s
Channel(s) : 6 channels
Channel layout : L R C LFE Ls Rs
Sampling rate : 48.0 kHz
Frame rate : 31.250 FPS (1536 SPF)
Compression mode : Lossy
Stream size : 331 MiB (11%)
Title : MVO_[Jaskier]
Language : Russian
Service kind : Complete Main
Default : Yes
Forced : Yes

Audio #2
ID : 3
Format : E-AC-3 JOC
Format/Info : Enhanced AC-3 with Joint Object Coding
Commercial name : Dolby Digital Plus with Dolby Atmos
Codec ID : A_EAC3
Duration : 1 h 43 min
Bit rate mode : Constant
Bit rate : 768 kb/s
Channel(s) : 6 channels
Channel layout : L R C LFE Ls Rs
Sampling rate : 48.0 kHz
Frame rate : 31.250 FPS (1536 SPF)
Compression mode : Lossy
Stream size : 568 MiB (19%)
Title : Original
Language : English
Service kind : Complete Main
Default : No
Forced : No
Complexity index : 16
Number of dynamic objects : 15
Bed channel count : 1 channel
Bed channel configuration : LFE

Text #1
ID : 4
Format : UTF-8
Codec ID : S_TEXT/UTF8
Codec ID/Info : UTF-8 Plain Text
Duration : 1 h 33 min
Bit rate : 67 b/s
Count of elements : 1302
Stream size : 46.7 KiB (0%)
Title : Full
Language : English
Default : No
Forced : No

Text #2
ID : 5
Format : UTF-8
Codec ID : S_TEXT/UTF8
Codec ID/Info : UTF-8 Plain Text
Duration : 1 h 36 min
Bit rate : 71 b/s
Count of elements : 1419
Stream size : 50.5 KiB (0%)
Title : SDH
Language : English
Default : No
Forced : No

Text #3
ID : 6
Format : UTF-8
Codec ID : S_TEXT/UTF8
Codec ID/Info : UTF-8 Plain Text
Duration : 1 h 41 min
Bit rate : 53 b/s
Count of elements : 1078
Stream size : 39.8 KiB (0%)
Title : Full_[Latin American]
Language : Spanish
Default : No
Forced : No

Menu
00:00:00.000 : en:Chapter 01
00:07:04.341 : en:Chapter 02
00:15:42.484 : en:Chapter 03
00:24:55.995 : en:Chapter 04
00:35:15.115 : en:Chapter 05
00:44:38.261 : en:Chapter 06
00:56:43.486 : en:Chapter 07
01:07:18.788 : en:Chapter 08
01:18:02.891 : en:Chapter 09
01:27:35.422 : en:Chapter 10
01:37:17.253 : en:Chapter 11




Скачать Нечего терять через торрент https://i4-imageban-ru.translate.goog/out/2022/09/17/eed147f4a9116473f0ebd81fb1827cd4.jpg Скачать, смотреть онлайн Нечего терять бесплантно в хорошем качестве Описание: Ветерану морской пехоты Брайану Брауну-Исли было отказано в поддержке со стороны Департамента по делам ветеранов США. ... 10 10 5
Торрент: Зарегистрирован [2022-09-17 20:47] · скачан: 161 раз
Статус: √ проверено
Размер: 2.92 GB
Как cкачать? Как скачать Нечего терять через торрент | UTorrent

% Раздел Тема Автор DL S | L
Фильмы 2022 [DVDrip, WEB-DLRip, HDrip] (DUB, MVO) [ 1.46 GB ] Нечего терять / Разрыв / Breaking / 892 | Jaskier | DLRip-AVC bober100 Скачать
7 | 0

28-11-2019 20:33  


Отключить вcю реклaмy на сайте, в т.ч. и в плеере онлайн просмотра!

18-09-2022 09:02 Нечего терять Скачать торрент  

опять негр..у них что в морпехи WOSP уже не идут ???



    Дорогой пользователь! Огромная просьба, поблагодарите релизера, оцените раздачу и оставьте свои комментарий, если Вы скачали Нечего терять через торрент бесплатно!!
    Комментировать посты могут только пользователи прошедшие не сложную регистрацию
    Показать сообщения:    


    Нечего терять через торрент
    Скачать бесплатно Нечего терять
    Нечего терять скачать торрент
    Нечего терять смотреть онлайн
    Cкачать фильм Нечего терять бесплатно
    Нечего терять скачать торрент в хорошем качестве
    Нечего терять смотреть онлайн бесплатно в хорошем качестве
    Вы не можете начинать темы
    Вы не можете отвечать на сообщения
    Вы не можете редактировать свои сообщения
    Вы не можете удалять свои сообщения
    Вы не можете голосовать в опросах
    Вы не можете прикреплять файлы к сообщениям
    Вы можете скачивать файлы
    Нечего терять / Разрыв / Breaking / 892 [2022, Триллер, драма, криминал, WEB-DL 720p] MVO [Jaskier] смотреть онлайн, скачать торрент picoco.icu