Лицензия

MVO

1

1 сезон

Лицензия

Лицензия

13

MVO

1 сезон

Deluxe Edition

pack

Рекомендуем

30

Repack

ВАЖНО

ВАЖНО

Ghostwire

RePack

jed

RePack

fifa19

RePack

RDR2

RePack

NEED FOR SPEED™ PAYBACK

RePack

Кинопоиск HD

 Острые козырьки 6 сезон

6 сезон

FAR CRY 6

RePack

Лицензия

MVO

1

1 сезон

1 сезон

Лицензия

  

Три тысячи лет желаний / Three Thousand Years of Longing (Джордж Миллер) [2022, Фэнтези, драма, мелодрама, WEB-DLRip-AVC] 2xMVO [Jaskier, TVShows]

Три тысячи лет желаний через торрент pb.wtf

Раздают: 30 [ 608 KB/s ] Качают: 2 [ 339 KB/s ]
Размер: 2.15 GB | Добавлен: 7 д. назад | Торрент скачан:433 раза
Смотреть онлайн Три тысячи лет желаний | Скачать   

17-09-2022 21:21 Три тысячи лет желаний Скачать торрент  

Три тысячи лет желаний
Three Thousand Years of Longing

Год выпуска: 2022
Выпущено: Kennedy Miller Mitchel, lKennedy Miller Productions, Metro-Goldwyn-Mayer (MGM)
Страна: Австралия, США
Жанр: Фэнтези, драма, мелодрама
Продолжительность: 01:48:38
Перевод:
Профессиональный (многоголосый) | Jaskier
Профессиональный (многоголосый) | TVShows
Субтитры: Русские (Full / feofanio), английские (Forced hardsub, Full, SDH)

Режиссер: Джордж Миллер

rating

В ролях: Тильда Суинтон, Идрис Эльба, Пиа Тандерболт, Берк Озтюрк, Энтони Муассе, Алила Браун, Сэйдж Макконнелл, Абель Бонд, Агани Гечмез, Аянту Усман

Описание: Вот уже три тысячи лет перед глазами Джинна проносятся эпохи, целые цивилизации и погубленные страстями династии. Хозяева его сосуда сменялись, но так и не успевали освободить Джинна. Наконец, в наши дни его судьба оказывается в руках Алетейи - выдающейся ученой в области литературы. Однако она знает, чем обычно заканчиваются истории про джиннов, а потому не торопится загадывать свои три желания. Это невероятное знакомство позволит им обоим посмотреть на мир совершенно по-новому и подарит обоим куда большее, чем они могли пожелать.

Качество: WEB-DLRip-AVC
Формат: MKV

Видео: MPEG-4 AVC, 1024x426 at 23.976 fps, [email protected], ~1623 kbps
Аудио 1: AC3, 6 ch, ~384 kbps - | Русский | | Jaskier
Аудио 2: AC3, 6 ch, ~384 kbps - | Русский | | TVShows
Аудио 3: AC3, 6 ch, ~448 kbps - | Английский | | Original
скриншот  скриншот  скриншот  скриншот  

x264 [info]: frame I:1000 Avg QP:15.39 size: 64412
x264 [info]: frame P:34834 Avg QP:17.51 size: 19244
x264 [info]: frame B:120043 Avg QP:19.89 size: 4867
x264 [info]: consecutive B-frames: 1.7% 2.2% 6.3% 39.4% 14.7% 24.2% 3.4% 2.6% 1.0% 1.1% 0.9% 0.6% 0.6%

General
Unique ID : 219160551130851206210065610561837386674 (0xA4E0C96C0FA4A491C41332098F9CCBB2)
Complete name : D:Three.Thousand.Years.Of.Longing.2022.AMZN.WEB-DLRip.x264.seleZen.mkv
Format : Matroska
Format version : Version 4
File size : 2.15 GiB
Duration : 1 h 48 min
Overall bit rate : 2 842 kb/s
Movie name : Three.Thousand.Years.Of.Longing.2022.AMZN.WEB-DLRip.x264.seleZen
Encoded date : UTC 2022-09-17 11:30:14
Writing application : mkvmerge v70.0.0 ('Caught A Lite Sneeze') 64-bit
Writing library : libebml v1.4.2 + libmatroska v1.6.4
Cover : Yes
Attachments : cover.jpg / small_cover.jpg

Video
ID : 1
Format : AVC
Format/Info : Advanced Video Codec
Format profile : [email protected]
Format settings : CABAC / 14 Ref Frames
Format settings, CABAC : Yes
Format settings, Reference : 14 frames
Codec ID : V_MPEG4/ISO/AVC
Duration : 1 h 48 min
Bit rate : 1 623 kb/s
Width : 1 024 pixels
Height : 426 pixels
Display aspect ratio : 2.40:1
Frame rate mode : Constant
Frame rate : 23.976 (24000/1001) FPS
Color space : YUV
Chroma subsampling : 4:2:0
Bit depth : 8 bits
Scan type : Progressive
Bits/(Pixel*Frame) : 0.155
Stream size : 1.23 GiB (57%)
Title : -=DoMiNo=-
Writing library : x264 core 164 by -=DoMiNo=-
Encoding settings : cabac=1 / ref=14 / deblock=1:-3:-2 / analyse=0x3:0x133 / me=umh / subme=10 / psy=1 / psy_rd=1.02:0.05 / mixed_ref=1 / me_range=32 / chroma_me=1 / trellis=2 / 8x8dct=1 / cqm=0 / deadzone=21,11 / fast_pskip=1 / chroma_qp_offset=-3 / threads=17 / lookahead_threads=3 / sliced_threads=0 / nr=0 / decimate=1 / interlaced=0 / bluray_compat=0 / constrained_intra=0 / bframes=12 / b_pyramid=2 / b_adapt=2 / b_bias=0 / direct=1 / weightb=1 / open_gop=0 / weightp=2 / keyint=250 / keyint_min=23 / scenecut=40 / intra_refresh=0 / rc_lookahead=60 / rc=crf / mbtree=0 / crf=18.5 / qcomp=0.65 / qpmin=0 / qpmax=69 / qpstep=4 / vbv_maxrate=50000 / vbv_bufsize=62500 / crf_max=0.0 / nal_hrd=none / filler=0 / ip_ratio=1.40 / pb_ratio=1.30 / aq=3:0.80
Language : English
Default : Yes
Forced : No
Color range : Limited
Color primaries : BT.709
Transfer characteristics : BT.709
Matrix coefficients : BT.709

Audio #1
ID : 2
Format : AC-3
Format/Info : Audio Coding 3
Commercial name : Dolby Digital
Codec ID : A_AC3
Duration : 1 h 48 min
Bit rate mode : Constant
Bit rate : 384 kb/s
Channel(s) : 6 channels
Channel layout : L R C LFE Ls Rs
Sampling rate : 48.0 kHz
Frame rate : 31.250 FPS (1536 SPF)
Compression mode : Lossy
Stream size : 298 MiB (14%)
Title : MVO_[Jaskier]
Language : Russian
Service kind : Complete Main
Default : Yes
Forced : Yes

Audio #2
ID : 3
Format : AC-3
Format/Info : Audio Coding 3
Commercial name : Dolby Digital
Codec ID : A_AC3
Duration : 1 h 48 min
Bit rate mode : Constant
Bit rate : 384 kb/s
Channel(s) : 6 channels
Channel layout : L R C LFE Ls Rs
Sampling rate : 48.0 kHz
Frame rate : 31.250 FPS (1536 SPF)
Compression mode : Lossy
Stream size : 298 MiB (14%)
Title : MVO_[TVShows]
Language : Russian
Service kind : Complete Main
Default : No
Forced : No

Audio #3
ID : 4
Format : AC-3
Format/Info : Audio Coding 3
Commercial name : Dolby Digital
Codec ID : A_AC3
Duration : 1 h 48 min
Bit rate mode : Constant
Bit rate : 448 kb/s
Channel(s) : 6 channels
Channel layout : L R C LFE Ls Rs
Sampling rate : 48.0 kHz
Frame rate : 31.250 FPS (1536 SPF)
Compression mode : Lossy
Stream size : 347 MiB (16%)
Title : Original
Language : English
Service kind : Complete Main
Default : No
Forced : No

Text #1
ID : 5
Format : UTF-8
Codec ID : S_TEXT/UTF8
Codec ID/Info : UTF-8 Plain Text
Duration : 1 h 39 min
Bit rate : 91 b/s
Count of elements : 1324
Stream size : 66.4 KiB (0%)
Title : Full_[feofanio]
Language : Russian
Default : No
Forced : No

Text #2
ID : 6
Format : UTF-8
Codec ID : S_TEXT/UTF8
Codec ID/Info : UTF-8 Plain Text
Duration : 1 h 39 min
Bit rate : 49 b/s
Count of elements : 1248
Stream size : 35.9 KiB (0%)
Title : Full
Language : English
Default : No
Forced : No

Text #3
ID : 7
Format : UTF-8
Codec ID : S_TEXT/UTF8
Codec ID/Info : UTF-8 Plain Text
Duration : 1 h 39 min
Bit rate : 60 b/s
Count of elements : 1562
Stream size : 44.4 KiB (0%)
Title : SDH
Language : English
Default : No
Forced : No

Menu
00:00:00.000 : en:Глава 01
00:12:30.000 : en:Глава 02
00:25:00.000 : en:Глава 03
00:37:30.000 : en:Глава 04
00:50:00.000 : en:Глава 05
01:02:30.000 : en:Глава 06
01:15:00.000 : en:Глава 07
01:27:30.000 : en:Глава 08
01:40:00.000 : en:Глава 09




Скачать Три тысячи лет желаний через торрент https://i.postimg.cc/NF642Cq5/Three-Thousand-Years-of-Longing-film.jpg Скачать, смотреть онлайн Три тысячи лет желаний бесплантно в хорошем качестве Описание: Вот уже три тысячи лет перед глазами Джинна проносятся эпохи, целые цивилизации и погубленные страстями династии. Хозяева его ... 10 10 17
Торрент: Зарегистрирован [2022-09-17 21:21] · скачан: 433 раз
Статус: √ проверено
Размер: 2.15 GB
Как cкачать? Как скачать Три тысячи лет желаний через торрент | UTorrent

% Раздел Тема Автор DL S | L
Фильмы 2022 [DVDrip, WEB-DLRip, HDrip] (DUB, MVO) [ 2.51 GB ] Три тысячи лет желаний / Three Thousand Years of Longing | Jaskier | DLRip-AVC Lithuania Скачать
4 | 3
Фильмы (WEB-DL 720p, 1080p) [ 7.03 GB ] Три тысячи лет желаний / Three Thousand Years of Longing | Jaskier | 1080p bober100 Скачать
46 | 4
Фильмы (WEB-DL 720p, 1080p) [ 3.32 GB ] Три тысячи лет желаний / Three Thousand Years of Longing | Jaskier | 720p bober100 Скачать
16 | 0

28-11-2019 20:33  

Отключить вcю реклaмy на сайте

18-09-2022 09:11 Три тысячи лет желаний Скачать торрент  

Отвратительно-блевотный фильм



20-09-2022 12:07 Три тысячи лет желаний Скачать торрент  

Хороший, очень неглупый фильм. Это не экшн, не фэнтези, не люди-икс, алладин и др. сказки. Это мелодрама, частично историческая. О любви, в общем. )



21-09-2022 03:55 Три тысячи лет желаний Скачать торрент  

три тысячи раз заснул... фильм о жалобах джина на жизнь... большего в фильме ничего нет... к сожалению...



24-09-2022 19:56 Три тысячи лет желаний Скачать торрент  

Хороший фильм. Не для посредственного ума.



    Дорогой пользователь! Огромная просьба, поблагодарите релизера, оцените раздачу и оставьте свои комментарий, если Вы скачали Три тысячи лет желаний через торрент бесплатно!!
    Комментировать посты могут только пользователи прошедшие не сложную регистрацию
    Показать сообщения:    


    Три тысячи лет желаний через торрент
    Скачать бесплатно Три тысячи лет желаний
    Три тысячи лет желаний скачать торрент
    Три тысячи лет желаний смотреть онлайн
    Cкачать фильм Три тысячи лет желаний бесплатно
    Три тысячи лет желаний скачать торрент в хорошем качестве
    Три тысячи лет желаний смотреть онлайн бесплатно в хорошем качестве
    Вы можете начинать темы
    Вы можете отвечать на сообщения
    Вы не можете редактировать свои сообщения
    Вы не можете удалять свои сообщения
    Вы не можете голосовать в опросах
    Вы не можете прикреплять файлы к сообщениям
    Вы можете скачивать файлы