Доктор Стрэндж

Лицензия

Добыча

Дубляж

Дом дракона

1 сезон

Тор

Дубляж

В эфире

Дубляж

Там, где раки поют

MVO

Властелин колец

1 сезон

Deluxe

pack

Рекомендуем

30

Пиратка

ВАЖНО

ВАЖНО

Ghostwire

Пиратка

jed

RePack

nioh2

RePack

RDR2

RePack

NEED FOR SPEED™ PAYBACK

RePack

скачать торрент

Кинопоиск HD

Острые козырьки 6 сезон

6 сезон

FAR CRY 6

RePack

скачать торрент

Лицензия

скачать торрент

MVO

1

1 сезон

скачать торрент

1 сезон

скачать торрент

Лицензия

  

Русалки / Сезон: 1 / Серии: 1-13 из 16 (Саша Кириенко) [2018, Детектив, мистика, триллер, WEB-DLRip-AVC]

Русалки через торрент pb.wtf

Раздают: 3 [ 0 KB/s ] Качают: 3 [ 0 KB/s ]
Размер: 8.52 GB | Добавлен: 6 д. назад | Торрент скачан:12 раз
Смотреть онлайн | Скачать   

17-09-2022 21:50 Русалки Скачать торрент  

Русалки
Год выпуска: 2018
Страна: Россия
Выпущено: Кинокомпания «Амедиа Продакшн», Продюсерская компания «Среда»
Жанр: Детектив, мистика, триллер
Продолжительность: ~ 00:55:00
Перевод: Не требуется
Субтитры: отсутствуют

Режиссер: Саша Кириенко

rating

В ролях: Иева Андреевайте, Пётр Фёдоров (младший), Михаил Горевой, Дарья Мороз, Евгения Дмитриева, Вера Воронкова, Мераб Нинидзе, Константин Воробьёв, Евгений Антропов, Марта Кесслер, Северия Янушаускайте, Анна Цуканова-Котт, Мария Шумакова, Сабина Ахмедова, Ирина Денисова (IV), Эрик Яралов, Даниил Воробьёв, Михаил Дорожкин, Анна Геллер, Екатерина Молоховская, Клим Бердинский, Сергей Сосновский, Екатерина Агеева, Пьер Бурель, Нана Муштакова, Марина Дианова, Фаридуншо Рахматуллоев, Дмитрий Чеботарёв, Георгий Пицхелаури, Артём Сучков, Нодар Джанелидзе, Дмитрий Куличков, Александр Горелов, Дмитрий Поднозов, Юлия Яблонская, Виктория Романенко, Александра Черкасова, Полина Пахомова (II), Микаэл Джанибекян, Инна Степанова, Василий Буткевич, Сергей Неудачин

Описание: Размеренную жизнь провинциального города потрясает страшная новость: найдено тело 32-летней женщины. Есть подозрение, что погибшая - сестра следователя местного ОВД Риты Тихоновой, пропавшая 14 лет назад. Начинается расследование, в ходе которого Рита сталкивается с весьма странными обстоятельствами и понимает, что её окружение хранит страшные тайны, а родные и друзья не те, за кого себя выдают...

Качество: WEB-DLRip-AVC
Формат: MKV

Видео: MPEG-4 AVC, ~ 1600 Кбит/с, 1024x576, 25 кадр/с
Аудио: 48.0 kHz, AC3 Dolby Digital, 2/0 (L,R) ch, ~ 192 kbps
скриншот  скриншот  скриншот  скриншот  скриншот  скриншот  

General
Unique ID : 235478044245038259303784510731461599610 (0xB1276BF248F7B359A1AF3C5CD87C217A)
Complete name : F:\Русалки.(2018).WEB-DLRip.(AVC).Files-x\01.Русалки.(2018).WEB-DLRip.(AVC).by.Серый1779.Files-x.mkv
Format : Matroska
Format version : Version 2
File size : 702 MiB
Duration : 54 min 46 s
Overall bit rate : 1 792 kb/s
Encoded date : UTC 2022-09-10 12:50:18
Writing application : mkvmerge v7.8.0 ('River Man') 32bit built on Apr 3 2015 12:11:22
Writing library : libebml v1.3.1 + libmatroska v1.4.2

Video
ID : 1
Format : AVC
Format/Info : Advanced Video Codec
Format profile : [email protected]
Format settings : CABAC / 9 Ref Frames
Format settings, CABAC : Yes
Format settings, RefFrames : 9 frames
Codec ID : V_MPEG4/ISO/AVC
Duration : 54 min 46 s
Bit rate : 1 600 kb/s
Width : 1 024 pixels
Height : 576 pixels
Display aspect ratio : 16:9
Frame rate mode : Constant
Frame rate : 25.000 FPS
Color space : YUV
Chroma subsampling : 4:2:0
Bit depth : 8 bits
Scan type : Progressive
Bits/(Pixel*Frame) : 0.109
Stream size : 613 MiB (87%)
Writing library : x264 core 146 r2538 121396c
Encoding settings : cabac=1 / ref=9 / deblock=1:-2:-1 / analyse=0x3:0x133 / me=umh / subme=9 / psy=1 / psy_rd=1.00:0.15 / mixed_ref=1 / me_range=32 / chroma_me=1 / trellis=2 / 8x8dct=1 / cqm=0 / deadzone=21,11 / fast_pskip=0 / chroma_qp_offset=-3 / threads=18 / lookahead_threads=3 / sliced_threads=0 / nr=0 / decimate=1 / interlaced=0 / bluray_compat=0 / constrained_intra=0 / bframes=9 / b_pyramid=2 / b_adapt=2 / b_bias=0 / direct=1 / weightb=1 / open_gop=0 / weightp=2 / keyint=250 / keyint_min=25 / scenecut=40 / intra_refresh=0 / rc=2pass / mbtree=0 / bitrate=1600 / ratetol=1.0 / qcomp=0.60 / qpmin=0 / qpmax=69 / qpstep=4 / cplxblur=20.0 / qblur=0.5 / ip_ratio=1.40 / pb_ratio=1.30 / aq=2:1.00
Default : Yes
Forced : No
Color range : Limited
Color primaries : BT.709
Transfer characteristics : BT.709
Matrix coefficients : BT.709

Audio
ID : 2
Format : AC-3
Format/Info : Audio Coding 3
Format settings, Endianness : Big
Codec ID : A_AC3
Duration : 54 min 46 s
Bit rate mode : Constant
Bit rate : 192 kb/s
Channel(s) : 2 channels
Channel positions : Front: L R
Sampling rate : 48.0 kHz
Frame rate : 31.250 FPS (1536 SPF)
Bit depth : 16 bits
Compression mode : Lossy
Stream size : 75.2 MiB (11%)
Service kind : Complete Main
Default : Yes
Forced : No

Внимание! Раздача ведётся путём добавления новых серий; при каждом добавлении создаётся новый торрент. Чтобы начать докачку новой серии, пользователям необходимо сделать следующее: (1) остановить скачивание, (2) удалить старый торрент у себя из клиента (старые серии удалять не надо), (3) скачать новый торрент и запустить его у себя в клиенте вместо старого, при этом указать клиенту путь в старую папку куда и должно происходить скачивание новых серий.

Ваш клиент при этом должен произвести хеширование (проверку) старой папки (если не производит сам - помогите ему сделать это), и будет докачивать только те серии которых у вас ещё нет. Старые серии при этом не удаляются, а продолжают раздаваться!

Eсли вы уже удалили старые серии, то предотвратить повторную закачку старых серий можно, отжав галочку в соответствующих местах при запуске нового торрента.



Скачать Русалки через торрент https://i120.fastpic.org/big/2022/0906/c7/ca4ef9dc1fa96653481bc97a4d3ee9c7.jpg Скачать, смотреть онлайн Русалки бесплантно в хорошем качестве Описание: Размеренную жизнь провинциального города потрясает страшная новость: найдено тело 32-летней женщины. Есть подозрение, что ... 5.4 10 20
Торрент: Зарегистрирован [2022-11-26 08:24] · скачан: 12 раз
Статус: √ проверено
Размер: 8.52 GB
Как cкачать? Как скачать Русалки через торрент | UTorrent

% Раздел Тема Автор DL S | L
Наши сериалы [ 22.77 GB ] Русалки / Сезон: 1 / Серии: 1-13 из 16 | | 1080p bober100 Скачать
3 | 2



Последний раз редактировалось: bober100 (2022-11-26 08:24), всего редактировалось 6 раз(а)

28-11-2019 20:33  


Отключить вcю реклaмy на сайте, в т.ч. и в плеере онлайн просмотра!

04-10-2022 04:05 Русалки Скачать торрент  

сериал Русалки 2014года 3 сезона Израиль...смотрел,был интересный,этот судя по описанию его копия,но не смотрел...



    Дорогой пользователь! Огромная просьба, поблагодарите релизера, оцените раздачу и оставьте свои комментарий, если Вы скачали Русалки через торрент бесплатно!!
    Комментировать посты могут только пользователи прошедшие не сложную регистрацию
    Показать сообщения:    


    Русалки через торрент
    Скачать бесплатно Русалки
    Русалки скачать торрент
    Русалки смотреть онлайн
    Cкачать фильм Русалки бесплатно
    Русалки скачать торрент в хорошем качестве
    Русалки смотреть онлайн бесплатно в хорошем качестве
    Вы не можете начинать темы
    Вы не можете отвечать на сообщения
    Вы не можете редактировать свои сообщения
    Вы не можете удалять свои сообщения
    Вы не можете голосовать в опросах
    Вы не можете прикреплять файлы к сообщениям
    Вы можете скачивать файлы
    Русалки / Сезон: 1 / Серии: 1-13 из 16 [2018, Детектив, мистика, триллер, WEB-DLRip-AVC] смотреть онлайн, скачать торрент picoco.icu