Доктор Стрэндж

Лицензия

Добыча

Дубляж

Дом дракона

1 сезон

Тор

Дубляж

В эфире

Дубляж

Там, где раки поют

MVO

Властелин колец

1 сезон

GLOBAL

pack

Рекомендуем

30

Пиратка

ВАЖНО

ВАЖНО

Ghostwire

Пиратка

jed

RePack

nioh2

RePack

RDR2

RePack

NEED FOR SPEED™ PAYBACK

RePack

скачать торрент

Кинопоиск HD

Острые козырьки 6 сезон

6 сезон

FAR CRY 6

RePack

скачать торрент

Лицензия

скачать торрент

MVO

1

1 сезон

скачать торрент

1 сезон

скачать торрент

Лицензия

  

Русалки / Сезон: 1 / Серии: 1-13 из 16 (Саша Кириенко) [2018, Детектив, мистика, триллер, WEB-DL 1080p]

Русалки через торрент pb.wtf

Размер: 22.77 GB | Добавлен: 3 д. назад | Торрент скачан:8 раз
Смотреть онлайн | Скачать   

17-09-2022 21:55 Русалки Скачать торрент  

Русалки
Год выпуска: 2018
Страна: Россия
Выпущено: Кинокомпания «Амедиа Продакшн», Продюсерская компания «Среда»
Жанр: Детектив, мистика, триллер
Продолжительность: ~ 00:55:00
Перевод: Не требуется
Субтитры: отсутствуют

Режиссер: Саша Кириенко

rating

В ролях: Иева Андреевайте, Пётр Фёдоров (младший), Михаил Горевой, Дарья Мороз, Евгения Дмитриева, Вера Воронкова, Мераб Нинидзе, Константин Воробьёв, Евгений Антропов, Марта Кесслер, Северия Янушаускайте, Анна Цуканова-Котт, Мария Шумакова, Сабина Ахмедова, Ирина Денисова (IV), Эрик Яралов, Даниил Воробьёв, Михаил Дорожкин, Анна Геллер, Екатерина Молоховская, Клим Бердинский, Сергей Сосновский, Екатерина Агеева, Пьер Бурель, Нана Муштакова, Марина Дианова, Фаридуншо Рахматуллоев, Дмитрий Чеботарёв, Георгий Пицхелаури, Артём Сучков, Нодар Джанелидзе, Дмитрий Куличков, Александр Горелов, Дмитрий Поднозов, Юлия Яблонская, Виктория Романенко, Александра Черкасова, Полина Пахомова (II), Микаэл Джанибекян, Инна Степанова, Василий Буткевич, Сергей Неудачин

Описание: Размеренную жизнь провинциального города потрясает страшная новость: найдено тело 32-летней женщины. Есть подозрение, что погибшая - сестра следователя местного ОВД Риты Тихоновой, пропавшая 14 лет назад. Начинается расследование, в ходе которого Рита сталкивается с весьма странными обстоятельствами и понимает, что её окружение хранит страшные тайны, а родные и друзья не те, за кого себя выдают...

Качество: WEB-DL 1080p
Формат: MKV

Видео: MPEG-4 AVC, 1920x1080, ~ 6000 Кбит/с, 0.116 bit/pixel, 25 Кадр/с
Аудио: 48.0 kHz, AC3 Dolby Digital, 2/0 (L,R) ch, ~ 192 kbps
скриншот  скриншот  скриншот  скриншот  скриншот  скриншот  

Общее
Уникальный идентификатор : 320241989981279367905032638034434263071 (0xF0EC5D21B3DB381DA29F5EA63783081F)
Полное имя : D:\Rusalki.S01.2018.WEB-DL.1080p\Rusalki.S01.E01.2018.WEB-DL.1080p.mkv
Формат : Matroska
Версия формата : Version 4
Размер файла : 2,36 Гбайт
Продолжительность : 54 м. 46 с.
Общий поток : 6 166 Кбит/сек
Название фильма : Rusalki.S01.E01.2018.WEB-DL.1080p
Дата кодирования : UTC 2022-09-09 21:44:40
Программа кодирования : mkvmerge v68.0.0 ('The Curtain') 64-bit
Библиотека кодирования : libebml v1.4.2 + libmatroska v1.6.4
Attachments : poster.jpg

Видео
Идентификатор : 1
Формат : AVC
Формат/Информация : Advanced Video Codec
Профиль формата : [email protected]
Настройки формата : CABAC / 4 Ref Frames
Параметр CABAC формата : Да
Параметр RefFrames формата : 4 кадра
Идентификатор кодека : V_MPEG4/ISO/AVC
Продолжительность : 54 м. 46 с.
Битрейт : 6 000 Кбит/сек
Ширина : 1 920 пикселей
Высота : 1 080 пикселей
Соотношение сторон : 16:9
Режим частоты кадров : Постоянный
Частота кадров : 25,000 кадров/сек
Цветовое пространство : YUV
Субдискретизация насыщенности : 4:2:0
Битовая глубина : 8 бит
Тип развёртки : Прогрессивная
Бит/(Пиксели*Кадры) : 0.116
Размер потока : 2,28 Гбайт (97%)
Библиотека кодирования : x264 core 157
Настройки программы : cabac=1 / ref=4 / deblock=1:0:0 / analyse=0x3:0x133 / me=umh / subme=10 / psy=1 / psy_rd=1.00:0.00 / mixed_ref=1 / me_range=24 / chroma_me=1 / trellis=2 / 8x8dct=1 / cqm=0 / deadzone=21,11 / fast_pskip=1 / chroma_qp_offset=-2 / threads=34 / lookahead_threads=5 / sliced_threads=0 / nr=0 / decimate=1 / interlaced=0 / bluray_compat=0 / stitchable=1 / constrained_intra=0 / bframes=8 / b_pyramid=2 / b_adapt=2 / b_bias=0 / direct=3 / weightb=1 / open_gop=0 / weightp=2 / keyint=250 / keyint_min=25 / scenecut=40 / intra_refresh=0 / rc_lookahead=60 / rc=2pass / mbtree=1 / bitrate=6000 / ratetol=1.0 / qcomp=0.60 / qpmin=0 / qpmax=69 / qpstep=4 / cplxblur=20.0 / qblur=0.5 / vbv_maxrate=6600 / vbv_bufsize=12000 / nal_hrd=none / filler=0 / ip_ratio=1.40 / aq=1:1.00
Default : Да
Forced : Нет

Аудио
Идентификатор : 2
Формат : AC-3
Формат/Информация : Audio Coding 3
Коммерческое название : Dolby Digital
Идентификатор кодека : A_AC3
Продолжительность : 54 м. 46 с.
Вид битрейта : Постоянный
Битрейт : 192 Кбит/сек
Каналы : 2 канала
Channel layout : L R
Частота : 48,0 КГц
Частота кадров : 31,250 кадров/сек (1536 SPF)
Метод сжатия : С потерями
Размер потока : 75,2 Мбайт (3%)
Заголовок : [Original | AC3 Audio]
Язык : Russian
Service kind : Complete Main
Default : Да
Forced : Нет

Внимание! Раздача ведётся путём добавления новых серий; при каждом добавлении создаётся новый торрент. Чтобы начать докачку новой серии, пользователям необходимо сделать следующее: (1) остановить скачивание, (2) удалить старый торрент у себя из клиента (старые серии удалять не надо), (3) скачать новый торрент и запустить его у себя в клиенте вместо старого, при этом указать клиенту путь в старую папку куда и должно происходить скачивание новых серий.

Ваш клиент при этом должен произвести хеширование (проверку) старой папки (если не производит сам - помогите ему сделать это), и будет докачивать только те серии которых у вас ещё нет. Старые серии при этом не удаляются, а продолжают раздаваться!

Eсли вы уже удалили старые серии, то предотвратить повторную закачку старых серий можно, отжав галочку в соответствующих местах при запуске нового торрента.



Скачать Русалки через торрент https://i120.fastpic.org/big/2022/0906/c7/ca4ef9dc1fa96653481bc97a4d3ee9c7.jpg Скачать, смотреть онлайн Русалки бесплантно в хорошем качестве Описание: Размеренную жизнь провинциального города потрясает страшная новость: найдено тело 32-летней женщины. Есть подозрение, что ... 6.6 10 21
Торрент: Зарегистрирован [2022-11-26 03:12] · скачан: 8 раз
Статус: √ проверено
Размер: 22.77 GB
Как cкачать? Как скачать Русалки через торрент | UTorrent

% Раздел Тема Автор DL S | L
Наши сериалы [ 8.52 GB ] Русалки / Сезон: 1 / Серии: 1-13 из 16 | | DLRip-AVC bober100 Скачать
5 | 0



Последний раз редактировалось: bober100 (2022-11-26 03:11), всего редактировалось 2 раз(а)

28-11-2019 20:33  


Отключить вcю реклaмy на сайте, в т.ч. и в плеере онлайн просмотра!

12-11-2022 11:14 Русалки Скачать торрент  

отличный фильм. жду вот новых серий.спасибо за раздачу всем



26-11-2022 04:44 Русалки Скачать торрент  

почему не отображается Cover,sreenshot



    Дорогой пользователь! Огромная просьба, поблагодарите релизера, оцените раздачу и оставьте свои комментарий, если Вы скачали Русалки через торрент бесплатно!!
    Комментировать посты могут только пользователи прошедшие не сложную регистрацию
    Показать сообщения:    


    Русалки через торрент
    Скачать бесплатно Русалки
    Русалки скачать торрент
    Русалки смотреть онлайн
    Cкачать фильм Русалки бесплатно
    Русалки скачать торрент в хорошем качестве
    Русалки смотреть онлайн бесплатно в хорошем качестве
    Вы не можете начинать темы
    Вы не можете отвечать на сообщения
    Вы не можете редактировать свои сообщения
    Вы не можете удалять свои сообщения
    Вы не можете голосовать в опросах
    Вы не можете прикреплять файлы к сообщениям
    Вы можете скачивать файлы
    Русалки / Сезон: 1 / Серии: 1-13 из 16 [2018, Детектив, мистика, триллер, WEB-DL 1080p] смотреть онлайн, скачать торрент picoco.icu