Доктор Стрэндж

Лицензия

Добыча

MVO

Дом дракона

1 сезон

Тор

Лицензия

Мэверик

Лицензия

Там, где раки поют

MVO

Властелин колец

1 сезон

Ultimate

pack

Рекомендуем

30

Repack

ВАЖНО

ВАЖНО

Ghostwire

RePack

jed

RePack

nioh2

RePack

RDR2

RePack

NEED FOR SPEED™ PAYBACK

RePack

скачать торрент

Кинопоиск HD

Острые козырьки 6 сезон

6 сезон

FAR CRY 6

RePack

скачать торрент

Лицензия

скачать торрент

MVO

1

1 сезон

скачать торрент

1 сезон

скачать торрент

Лицензия

  

Преступница Эмили / Emily the Criminal (Джон Паттон Форд) [2022, Триллер, драма, криминал, WEB-DL 1080p] MVO [Jaskier] +AVO [М. Яроцкий]

Преступница Эмили через торрент pb.wtf

Раздают: 13 [ 182 KB/s ]
Размер: 7.43 GB | Добавлен: 15 д. назад | Торрент скачан:231 раз
Смотреть онлайн Преступница Эмили | Скачать   

17-09-2022 22:50 Преступница Эмили Скачать торрент  

Преступница Эмили
Emily the Criminal

Год выпуска: 2022
Страна: США
Выпущено: Low Spark Films
Жанр: Триллер, драма, криминал
Продолжительность: 01:36:52
Перевод(ы):
#1: Профессиональный многоголосый | Jaskier
#2: Авторский | М. Яроцкий (Присутствует ненормативная лексика!)
Субтитры: Aнглийские

Режиссер: Джон Паттон Форд

rating

В ролях: Обри Плаза, Тео Росси, Рой Авигдори, Ким Ярбро, Джина Гершон, Бернардо Бадилло, Уэсли Хань, Уайатт Бэрриос, Мэгалин Эчиканвоке, Брэндон Скленар

Описание: Обремененная долгами Эмили пытается устроиться на нормальную работу, но везде получает отказы. Она знакомится с Юсефом, который предлагает ей поучаствовать в афере с кредитными картами. Жажда легкой наживы и острые ощущения быстро затягивают Эмили в преступный мир Лос-Анджелеса.

Качество: WEB-DL 1080p
Формат: MKV

Видео: MPEG-4 AVC, 1920x1080, 9441 Кbit/s, 23.976 fps
Аудио #01: 48 kHz, AC3, 5.1, 448 Kbps | Профессиональный многоголосый | Jaskier | RUS |
Аудио #02: 48 kHz, AC3, 5.1, 448 Kbps | Авторский | М. Яроцкий (Присутствует ненормативная лексика!) | RUS |
Аудио #03: 48 kHz, E-AC3, 5.1, 640 Kbps | Оригинал | ENG |
скриншот  скриншот  скриншот  скриншот  скриншот  

General
Unique ID : 55135511460825282499709109402385673887 (0x297AB697B165EF5635BABBED91426E9F)
Complete name : D:\Video0\Emily.the.Criminal.2022.AMZN.WEB-DL.1080p.seleZen.mkv
Format : Matroska
Format version : Version 4
File size : 7.43 GiB
Duration : 1 h 36 min
Overall bit rate : 11.0 Mb/s
Movie name : Emily the Criminal 2022 from seleZen
Encoded date : UTC 2022-09-17 22:35:25
Writing application : mkvmerge v59.0.0 ('Shining Star') 64-bit
Writing library : libebml v1.4.2 + libmatroska v1.6.4

Video
ID : 1
Format : AVC
Format/Info : Advanced Video Codec
Format profile : [email protected]
Format settings : CABAC / 4 Ref Frames
Format settings, CABAC : Yes
Format settings, Reference : 4 frames
Codec ID : V_MPEG4/ISO/AVC
Duration : 1 h 36 min
Bit rate mode : Constant
Bit rate : 9 441 kb/s
Nominal bit rate : 10 000 kb/s
Width : 1 920 pixels
Height : 800 pixels
Display aspect ratio : 2.40:1
Frame rate mode : Constant
Frame rate : 23.976 (24000/1001) FPS
Color space : YUV
Chroma subsampling : 4:2:0
Bit depth : 8 bits
Scan type : Progressive
Bits/(Pixel*Frame) : 0.256
Stream size : 6.39 GiB (86%)
Language : English
Default : No
Forced : No
Color range : Limited
Color primaries : BT.709
Transfer characteristics : BT.709
Matrix coefficients : BT.709

Audio #1
ID : 2
Format : AC-3
Format/Info : Audio Coding 3
Commercial name : Dolby Digital
Codec ID : A_AC3
Duration : 1 h 36 min
Bit rate mode : Constant
Bit rate : 448 kb/s
Channel(s) : 6 channels
Channel layout : L R C LFE Ls Rs
Sampling rate : 48.0 kHz
Frame rate : 31.250 FPS (1536 SPF)
Compression mode : Lossy
Stream size : 310 MiB (4%)
Title : MVO [Jaskier]
Language : Russian
Service kind : Complete Main
Default : Yes
Forced : Yes

Audio #2
ID : 3
Format : AC-3
Format/Info : Audio Coding 3
Commercial name : Dolby Digital
Codec ID : A_AC3
Duration : 1 h 36 min
Bit rate mode : Constant
Bit rate : 448 kb/s
Channel(s) : 6 channels
Channel layout : L R C LFE Ls Rs
Sampling rate : 48.0 kHz
Frame rate : 31.250 FPS (1536 SPF)
Compression mode : Lossy
Stream size : 310 MiB (4%)
Title : AVO [М. Яроцкий]
Language : Russian
Service kind : Complete Main
Default : No
Forced : No

Audio #3
ID : 4
Format : E-AC-3
Format/Info : Enhanced AC-3
Commercial name : Dolby Digital Plus
Codec ID : A_EAC3
Duration : 1 h 36 min
Bit rate mode : Constant
Bit rate : 640 kb/s
Channel(s) : 6 channels
Channel layout : L R C LFE Ls Rs
Sampling rate : 48.0 kHz
Frame rate : 31.250 FPS (1536 SPF)
Compression mode : Lossy
Stream size : 443 MiB (6%)
Title : Original
Language : English
Service kind : Complete Main
Default : No
Forced : No

Text #1
ID : 5
Format : UTF-8
Codec ID : S_TEXT/UTF8
Codec ID/Info : UTF-8 Plain Text
Duration : 1 h 27 min
Bit rate : 46 b/s
Frame rate : 0.223 FPS
Count of elements : 1173
Stream size : 30.0 KiB (0%)
Title : Full
Language : English
Default : No
Forced : No

Text #2
ID : 6
Format : UTF-8
Codec ID : S_TEXT/UTF8
Codec ID/Info : UTF-8 Plain Text
Duration : 1 h 35 min
Bit rate : 49 b/s
Frame rate : 0.241 FPS
Count of elements : 1380
Stream size : 35.0 KiB (0%)
Title : SDH
Language : English
Default : No
Forced : No




Скачать Преступница Эмили через торрент https://i120.fastpic.org/big/2022/0918/b0/a6dfe76d3a01ed11a31cbbba1a7a95b0.jpg Скачать, смотреть онлайн Преступница Эмили бесплантно в хорошем качестве Описание: Обремененная долгами Эмили пытается устроиться на нормальную работу, но везде получает отказы. Она знакомится с Юсефом, который ... 9.5 10 10
Торрент: Зарегистрирован [2022-09-17 22:50] · скачан: 231 раз
Статус: √ проверено
Размер: 7.43 GB
Как cкачать? Как скачать Преступница Эмили через торрент | UTorrent

% Раздел Тема Автор DL S | L
Фильмы 2022 [DVDrip, WEB-DLRip, HDrip] (DUB, MVO) [ 1.46 GB ] Преступница Эмили / Emily the Criminal | Jaskier | DLRip bober100 Скачать
19 | 0
Фильмы 2022 [DVDrip, WEB-DLRip, HDrip] (DUB, MVO) [ 1.46 GB ] Преступница Эмили / Emily the Criminal | Jaskier | DLRip-AVC bober100 Скачать
8 | 0

28-11-2019 20:33  

Отключить вcю реклaмy на сайте

18-09-2022 18:17 Преступница Эмили Скачать торрент  

Кто посмотрел, как фильм?



19-09-2022 07:57 Преступница Эмили Скачать торрент  

надо глянуть.отзывы хорошие. Глянул -так себе фильмец ,хотя идея была хорошая. Показали крутую бабу с мелкими сиськами и никчёмного мужика.)



21-09-2022 18:36 Преступница Эмили Скачать торрент  

pirotehnik771 писал(а):

надо глянуть.отзывы хорошие. Глянул -так себе фильмец ,хотя идея была хорошая. Показали крутую бабу с мелкими сиськами и никчёмного мужика.)

ну ты видать ещё тот мужичок с сиськами, ценитель-любитель заправского пошиба

Фильм так себе, но скорее не скучный. Идея интересная, главное вполне правдивая, но мне она отвратительна.
Типаж актёров, считаю подобран верно.



21-09-2022 19:05 Преступница Эмили Скачать торрент  

mrAmerica писал(а):

pirotehnik771 писал(а):

надо глянуть.отзывы хорошие. Глянул -так себе фильмец ,хотя идея была хорошая. Показали крутую бабу с мелкими сиськами и никчёмного мужика.)

ну ты видать ещё тот мужичок с сиськами, ценитель-любитель заправского пошиба

Ну а чё там в ней хорошего та нашёл ? Какая то толерастная бабёнка ,активная паходу)Мне не симпотичны такие)А Ты лучше бы на женские титьки обращал больше внимания)



23-09-2022 10:00 Преступница Эмили Скачать торрент  

Хорошее кино , а если вы на баб смотреть хотите , идите порно смотрите



24-09-2022 12:48 Преступница Эмили Скачать торрент  

thornss писал(а):

Хорошее кино , а если вы на баб смотреть хотите , идите порно смотрите

а харрошенькие у тебя такие титьки смарю)Можешь изобразить ими чёнить ?)



    Дорогой пользователь! Огромная просьба, поблагодарите релизера, оцените раздачу и оставьте свои комментарий, если Вы скачали Преступница Эмили через торрент бесплатно!!
    Комментировать посты могут только пользователи прошедшие не сложную регистрацию
    Показать сообщения:    


    Преступница Эмили через торрент
    Скачать бесплатно Преступница Эмили
    Преступница Эмили скачать торрент
    Преступница Эмили смотреть онлайн
    Cкачать фильм Преступница Эмили бесплатно
    Преступница Эмили скачать торрент в хорошем качестве
    Преступница Эмили смотреть онлайн бесплатно в хорошем качестве
    Вы не можете начинать темы
    Вы не можете отвечать на сообщения
    Вы не можете редактировать свои сообщения
    Вы не можете удалять свои сообщения
    Вы не можете голосовать в опросах
    Вы не можете прикреплять файлы к сообщениям
    Вы можете скачивать файлы