Лицензия

MVO

1

1 сезон

Лицензия

Лицензия

13

MVO

1 сезон

Deluxe Edition

pack

Рекомендуем

30

Repack

ВАЖНО

ВАЖНО

Ghostwire

RePack

jed

RePack

fifa19

RePack

RDR2

RePack

NEED FOR SPEED™ PAYBACK

RePack

Кинопоиск HD

 Острые козырьки 6 сезон

6 сезон

FAR CRY 6

RePack

Лицензия

MVO

1

1 сезон

1 сезон

Лицензия

  

Преступница Эмили / Emily the Criminal (Джон Паттон Форд) [2022, Триллер, драма, криминал, WEB-DLRip-AVC] MVO [Jaskier]

Преступница Эмили через торрент pb.wtf

Раздают: 8 [ 0 KB/s ]
Размер: 1.46 GB | Добавлен: 7 д. назад | Торрент скачан:130 раз
Смотреть онлайн Преступница Эмили | Скачать   

17-09-2022 22:55 Преступница Эмили Скачать торрент  

Преступница Эмили
Emily the Criminal

Год выпуска: 2022
Страна: США
Выпущено: Low Spark Films
Жанр: Триллер, драма, криминал
Продолжительность: 01:36:52
Перевод: Профессиональный многоголосый | Jaskier
Субтитры: Aнглийские, французские

Режиссер: Джон Паттон Форд

rating

В ролях: Обри Плаза, Тео Росси, Рой Авигдори, Ким Ярбро, Джина Гершон, Бернардо Бадилло, Уэсли Хань, Уайатт Бэрриос, Мэгалин Эчиканвоке, Брэндон Скленар

Описание: Обремененная долгами Эмили пытается устроиться на нормальную работу, но везде получает отказы. Она знакомится с Юсефом, который предлагает ей поучаствовать в афере с кредитными картами. Жажда легкой наживы и острые ощущения быстро затягивают Эмили в преступный мир Лос-Анджелеса.

Качество: WEB-DLRip-AVC
Формат: MKV

Видео: MPEG-4 AVC, 1024x424 at 23.976 fps, [email protected], ~1711 kbps
Аудио: 48 kHz, AC3, 5.1, 448 Kbps | Профессиональный многоголосый | Jaskier | RUS |
скриншот  скриншот  скриншот  скриншот  

x264 [info]: frame I:828 Avg QP:15.65 size: 49806
x264 [info]: frame P:31984 Avg QP:18.61 size: 18590
x264 [info]: frame B:106543 Avg QP:20.88 size: 5692
x264 [info]: consecutive B-frames: 2.3% 4.1% 9.2% 26.2% 13.9% 30.9% 4.7% 5.0% 0.8% 0.5% 0.4% 0.7% 0.4%

General
Unique ID : 197828700657706621503474371969772753119 (0x94D46BFE12934FE1CE0F7E9A675110DF)
Complete name : D:Emily.the.Criminal.2022.MVO.AMZN.WEB-DLRip.x264.seleZen.mkv
Format : Matroska
Format version : Version 4
File size : 1.46 GiB
Duration : 1 h 36 min
Overall bit rate : 2 160 kb/s
Movie name : Emily.the.Criminal.2022.MVO.AMZN.WEB-DLRip.x264.seleZen
Encoded date : UTC 2022-09-17 22:18:17
Writing application : mkvmerge v70.0.0 ('Caught A Lite Sneeze') 64-bit
Writing library : libebml v1.4.2 + libmatroska v1.6.4
Cover : Yes
Attachments : cover.jpg / small_cover.jpg

Video
ID : 1
Format : AVC
Format/Info : Advanced Video Codec
Format profile : [email protected]
Format settings : CABAC / 14 Ref Frames
Format settings, CABAC : Yes
Format settings, Reference : 14 frames
Codec ID : V_MPEG4/ISO/AVC
Duration : 1 h 36 min
Bit rate : 1 711 kb/s
Width : 1 024 pixels
Height : 424 pixels
Display aspect ratio : 2.40:1
Frame rate mode : Constant
Frame rate : 23.976 (24000/1001) FPS
Color space : YUV
Chroma subsampling : 4:2:0
Bit depth : 8 bits
Scan type : Progressive
Bits/(Pixel*Frame) : 0.164
Stream size : 1.16 GiB (79%)
Title : -=DoMiNo=-
Writing library : x264 core 164 by -=DoMiNo=-
Encoding settings : cabac=1 / ref=14 / deblock=1:-3:-2 / analyse=0x3:0x133 / me=umh / subme=10 / psy=1 / psy_rd=1.02:0.05 / mixed_ref=1 / me_range=32 / chroma_me=1 / trellis=2 / 8x8dct=1 / cqm=0 / deadzone=21,11 / fast_pskip=0 / chroma_qp_offset=-3 / threads=17 / lookahead_threads=3 / sliced_threads=0 / nr=0 / decimate=0 / interlaced=0 / bluray_compat=0 / constrained_intra=0 / bframes=12 / b_pyramid=2 / b_adapt=2 / b_bias=0 / direct=3 / weightb=1 / open_gop=0 / weightp=2 / keyint=250 / keyint_min=23 / scenecut=40 / intra_refresh=0 / rc_lookahead=60 / rc=2pass / mbtree=0 / bitrate=1711 / ratetol=1.0 / qcomp=0.70 / qpmin=0 / qpmax=69 / qpstep=4 / cplxblur=20.0 / qblur=0.5 / vbv_maxrate=50000 / vbv_bufsize=62500 / nal_hrd=none / filler=0 / ip_ratio=1.40 / pb_ratio=1.30 / aq=3:0.80
Language : English
Default : Yes
Forced : No
Color range : Limited
Color primaries : BT.709
Transfer characteristics : BT.709
Matrix coefficients : BT.709

Audio
ID : 2
Format : AC-3
Format/Info : Audio Coding 3
Commercial name : Dolby Digital
Codec ID : A_AC3
Duration : 1 h 36 min
Bit rate mode : Constant
Bit rate : 448 kb/s
Channel(s) : 6 channels
Channel layout : L R C LFE Ls Rs
Sampling rate : 48.0 kHz
Frame rate : 31.250 FPS (1536 SPF)
Compression mode : Lossy
Stream size : 310 MiB (21%)
Title : MVO_[Jaskier]_18+
Language : Russian
Service kind : Complete Main
Default : Yes
Forced : Yes

Text #1
ID : 3
Format : UTF-8
Codec ID : S_TEXT/UTF8
Codec ID/Info : UTF-8 Plain Text
Duration : 1 h 27 min
Bit rate : 46 b/s
Count of elements : 1173
Stream size : 30.0 KiB (0%)
Title : Full
Language : English
Default : No
Forced : No

Text #2
ID : 4
Format : UTF-8
Codec ID : S_TEXT/UTF8
Codec ID/Info : UTF-8 Plain Text
Duration : 1 h 35 min
Bit rate : 49 b/s
Count of elements : 1380
Stream size : 35.0 KiB (0%)
Title : SDH
Language : English
Default : No
Forced : No

Text #3
ID : 5
Format : UTF-8
Codec ID : S_TEXT/UTF8
Codec ID/Info : UTF-8 Plain Text
Duration : 1 h 30 min
Bit rate : 37 b/s
Count of elements : 944
Stream size : 24.9 KiB (0%)
Title : Full
Language : French
Default : No
Forced : No

Menu
00:00:00.000 : en:Глава 01
00:07:30.000 : en:Глава 02
00:15:00.000 : en:Глава 03
00:22:30.000 : en:Глава 04
00:30:00.000 : en:Глава 05
00:37:30.000 : en:Глава 06
00:45:00.000 : en:Глава 07
00:52:30.000 : en:Глава 08
01:00:00.000 : en:Глава 09
01:07:30.000 : en:Глава 10
01:15:00.000 : en:Глава 11
01:22:30.000 : en:Глава 12
01:30:00.000 : en:Глава 13




Скачать Преступница Эмили через торрент https://i120.fastpic.org/big/2022/0918/b0/a6dfe76d3a01ed11a31cbbba1a7a95b0.jpg Скачать, смотреть онлайн Преступница Эмили бесплантно в хорошем качестве Описание: Обремененная долгами Эмили пытается устроиться на нормальную работу, но везде получает отказы. Она знакомится с Юсефом, который ... 10 10 4
Торрент: Зарегистрирован [2022-09-17 22:55] · скачан: 130 раз
Статус: √ проверено
Размер: 1.46 GB
Как cкачать? Как скачать Преступница Эмили через торрент | UTorrent

% Раздел Тема Автор DL S | L
Фильмы (WEB-DL 720p, 1080p) [ 7.43 GB ] Преступница Эмили / Emily the Criminal | Jaskier | 1080p bober100 Скачать
15 | 0
Фильмы 2022 [DVDrip, WEB-DLRip, HDrip] (DUB, MVO) [ 1.46 GB ] Преступница Эмили / Emily the Criminal | Jaskier | DLRip bober100 Скачать
27 | 0

28-11-2019 20:33  

Отключить вcю реклaмy на сайте

    Дорогой пользователь! Огромная просьба, поблагодарите релизера, оцените раздачу и оставьте свои комментарий, если Вы скачали Преступница Эмили через торрент бесплатно!!
    Комментировать посты могут только пользователи прошедшие не сложную регистрацию
    Показать сообщения:    


    Преступница Эмили через торрент
    Скачать бесплатно Преступница Эмили
    Преступница Эмили скачать торрент
    Преступница Эмили смотреть онлайн
    Cкачать фильм Преступница Эмили бесплатно
    Преступница Эмили скачать торрент в хорошем качестве
    Преступница Эмили смотреть онлайн бесплатно в хорошем качестве
    Вы можете начинать темы
    Вы можете отвечать на сообщения
    Вы не можете редактировать свои сообщения
    Вы не можете удалять свои сообщения
    Вы не можете голосовать в опросах
    Вы не можете прикреплять файлы к сообщениям
    Вы можете скачивать файлы