Доктор Стрэндж

Лицензия

Добыча

Дубляж

Дом дракона

1 сезон

Тор

Дубляж

В эфире

Дубляж

Там, где раки поют

MVO

Властелин колец

1 сезон

GLOBAL

pack

Рекомендуем

30

Пиратка

ВАЖНО

ВАЖНО

Ghostwire

Пиратка

jed

RePack

nioh2

RePack

RDR2

RePack

NEED FOR SPEED™ PAYBACK

RePack

скачать торрент

Кинопоиск HD

Острые козырьки 6 сезон

6 сезон

FAR CRY 6

RePack

скачать торрент

Лицензия

скачать торрент

MVO

1

1 сезон

скачать торрент

1 сезон

скачать торрент

Лицензия

  

Война миров / War of the Worlds / Сезон: 3 / Серии: 1-8 из 8 (Жиль Кулье, Ричард Кларк) [2022, Фантастика, драма, WEB-DL 1080p] MVO [TVShows]

Война миров через торрент pb.wtf

Раздают: 2 [ 20 KB/s ] Качают: 1 [ 54 KB/s ]
Размер: 13.74 GB | Добавлен: 1 мес. 29 д. назад | Торрент скачан:61 раз
Смотреть онлайн | Скачать   

19-09-2022 17:36 Война миров Скачать торрент  

Война миров
War of the Worlds

Год выпуска: 2022
Страна: Великобритания, Франция, США
Студия: AGC Television, Canal+, De Wereldvrede, Urban Myth Films
Жанр: Фантастика, драма
Продолжительность: ~ 00:50:00
Перевод: Профессиональный (многоголосый) | TVShows
Субтитры: Aнглийские

Режиссер: Жиль Кулье, Ричард Кларк

rating

В ролях: Адель Беншериф, Гэбриел Бирн, Стефани Кайар, Леа Дрюкер, Дэйзи Эдгар-Джонс, Байо Гбадамоси, Пол Горостиди, Скотт Джеймс, Наташа Литтл, Элизабет МакГоверн и др.

Описание: Астрономы обнаружили передачу данных из другой галактики, что является очевидным доказательством разумной внеземной жизни. Жители земли ждут дальнейшего контакта, но им не придется долго ждать.

Качество: WEB-DL 1080p
Формат: MKV

Видео: 1920x1080 (16:9), 25, 000 fps, AVC (х264), [email protected], ~4500 Kbps avg, 0.087 bit/pixel
Аудио RUS: 48 kHz, AC3, 2/0 (L, R), ~384 kbps avg
Аудио ENG: 48 kHz, E-AC3, 3/2 (L, C, R, l, r) + LFE ch, ~640 kbps avg

Общее
Уникальный идентификатор : 225381375897623793584635808763065084019 (0xA98EDFC35E70A31F3788C5417C532873)
Полное имя : War.of.the.Worlds.2022.S03E01.WEB-DL.1080p.TVShows.mkv
Формат : Matroska
Версия формата : Version 4
Размер файла : 1, 81 Гбайт
Продолжительность : 48 м. 13 с.
Общий поток : 5 381 Кбит/сек
Дата кодирования : UTC 2022-09-19 14:55:06
Программа кодирования : mkvmerge v68.0.0 ('The Curtain') 64-bit
Библиотека кодирования : libebml v1.4.2 + libmatroska v1.6.4

Видео
Идентификатор : 1
Формат : AVC
Формат/Информация : Advanced Video Codec
Профиль формата : [email protected]
Настройки формата : CABAC / 2 Ref Frames
Параметр CABAC формата : Да
Параметр RefFrames формата : 2 кадра
Параметр GOP формата : M=1, N=50
Идентификатор кодека : V_MPEG4/ISO/AVC
Продолжительность : 48 м. 13 с.
Вид битрейта : Постоянный
Битрейт : 4 500 Кбит/сек
Ширина : 1 920 пикселей
Высота : 1 080 пикселей
Соотношение сторон : 16:9
Режим частоты кадров : Постоянный
Частота кадров : 25, 000 кадров/сек
Цветовое пространство : YUV
Субдискретизация насыщенности : 4:2:0
Битовая глубина : 8 бит
Тип развёртки : Прогрессивная
Бит/(Пиксели*Кадры) : 0.087
Размер потока : 1, 47 Гбайт (81%)
Default : Да
Forced : Нет
Цветовой диапазон : Limited
Основные цвета : BT.709
Характеристики трансфера : BT.709
Коэффициенты матрицы : BT.709

Аудио #1
Идентификатор : 2
Формат : AC-3
Формат/Информация : Audio Coding 3
Коммерческое название : Dolby Digital
Идентификатор кодека : A_AC3
Продолжительность : 48 м. 13 с.
Вид битрейта : Постоянный
Битрейт : 384 Кбит/сек
Каналы : 2 канала
Channel layout : L R
Частота : 48, 0 КГц
Частота кадров : 31, 250 кадров/сек (1536 SPF)
Метод сжатия : С потерями
Размер потока : 132 Мбайт (7%)
Заголовок : TVShows
Язык : Russian
Default : Да
Forced : Нет

Аудио #2
Идентификатор : 3
Формат : E-AC-3
Формат/Информация : Enhanced AC-3
Коммерческое название : Dolby Digital Plus
Идентификатор кодека : A_EAC3
Продолжительность : 48 м. 13 с.
Вид битрейта : Постоянный
Битрейт : 640 Кбит/сек
Каналы : 6 каналов
Channel layout : L R C LFE Ls Rs
Частота : 48, 0 КГц
Частота кадров : 31, 250 кадров/сек (1536 SPF)
Метод сжатия : С потерями
Размер потока : 221 Мбайт (12%)
Заголовок : English
Язык : English
Default : Нет
Forced : Нет

Текст
Идентификатор : 4
Формат : UTF-8
Идентификатор кодека : S_TEXT/UTF8
Идентификатор кодека/Информация : UTF-8 Plain Text
Продолжительность : 47 м. 21 с.
Битрейт : 38 бит/сек
Частота кадров : 0, 169 кадр/сек
Count of elements : 481
Размер потока : 13, 2 Кбайт (0%)
Заголовок : English
Язык : English
Default : Нет
Forced : Нет

Когда раздача ведётся путём добавления новых серий, при каждом добавлении создётся новый торрент. Чтобы начать докачку новой серии, пользователям необходимо сделать следующее:
(1) остановить скачивание,
(2) удалить старый торрент у себя из клиента (старые серии удалять не надо),
(3) скачать новый торрент и запустить его у себя в клиенте вместо старого, при этом указать клиенту путь в старую папку, куда и должно происходить скачивание новых серий.
Ваш клиент при этом должен произвести хеширование (проверку) старой папки (если не производит сам - помогите ему сделать это), и будет докачивать только те серии, которых у вас ещё нет. Старые серии при этом не удаляются, а продолжают раздаваться!
Eсли вы уже удалили старые серии, то предотвратить повторную закачку старых серий можно, отжав галочку в соответсвующих местах при запуске нового торрента. По возможности, желательно не удалять старые серии как можно дольше, чтобы релизёр не столько продолжал раздавать старые серии, а смог сконцентрироваться на новых.




Скачать Война миров через торрент https://i5-imageban-ru.translate.goog/out/2022/09/19/593407623db5f9507be753b99e7447c8.jpeg Скачать, смотреть онлайн Война миров бесплантно в хорошем качестве Описание: Астрономы обнаружили передачу данных из другой галактики, что является очевидным доказательством разумной внеземной жизни. Жители ... 10 10 12
Торрент: Зарегистрирован [2022-09-30 17:43] · скачан: 61 раз
Статус: √ проверено
Размер: 13.74 GB
Как cкачать? Как скачать Война миров через торрент | UTorrent

% Раздел Тема Автор DL S | L
Зарубежные сериалы [ 16.09 GB ] Война миров / War of the Worlds / Сезон: 2 / Серии: 1-8 из 8 | MVO | 1080p bober100 Скачать
2 | 1
Зарубежные сериалы [ 10.04 GB ] Война миров / War of the Worlds / Сезон: 1 / Серии: 1-8 из 8 | MVO | 720p bober100 Скачать
3 | 0
Зарубежные сериалы [ 4.32 GB ] Война миров / War of the Worlds / Сезон: 1 / Серии: 1-8 из 8 | MVO | DLRip bober100 Скачать
1 | 0
Зарубежные сериалы [ 11.29 GB ] Война миров / War of the Worlds / Сезон: 1 / Серии: 1-8 из 8 | MVO | HDTV 1080p bober100 Скачать
1 | 0

28-11-2019 20:33  


Отключить вcю реклaмy на сайте, в т.ч. и в плеере онлайн просмотра!

    Дорогой пользователь! Огромная просьба, поблагодарите релизера, оцените раздачу и оставьте свои комментарий, если Вы скачали Война миров через торрент бесплатно!!
    Комментировать посты могут только пользователи прошедшие не сложную регистрацию
    Показать сообщения:    


    Война миров через торрент
    Скачать бесплатно Война миров
    Война миров скачать торрент
    Война миров смотреть онлайн
    Cкачать фильм Война миров бесплатно
    Война миров скачать торрент в хорошем качестве
    Война миров смотреть онлайн бесплатно в хорошем качестве
    Вы не можете начинать темы
    Вы не можете отвечать на сообщения
    Вы не можете редактировать свои сообщения
    Вы не можете удалять свои сообщения
    Вы не можете голосовать в опросах
    Вы не можете прикреплять файлы к сообщениям
    Вы можете скачивать файлы
    Война миров / War of the Worlds / Сезон: 3 / Серии: 1-8 из 8 [2022, Фантастика, драма, WEB-DL 1080p] MVO [TVShows] смотреть онлайн, скачать торрент picoco.icu