Доктор Стрэндж

Лицензия

Добыча

Дубляж

Дом дракона

1 сезон

Тор

Дубляж

В эфире

Дубляж

Там, где раки поют

MVO

Властелин колец

1 сезон

GLOBAL

pack

Рекомендуем

30

Пиратка

ВАЖНО

ВАЖНО

Ghostwire

Пиратка

jed

RePack

nioh2

RePack

RDR2

RePack

NEED FOR SPEED™ PAYBACK

RePack

скачать торрент

Кинопоиск HD

Острые козырьки 6 сезон

6 сезон

FAR CRY 6

RePack

скачать торрент

Лицензия

скачать торрент

MVO

1

1 сезон

скачать торрент

1 сезон

скачать торрент

Лицензия

  

Стая / Сезон: 1 / Серии: 1-20 из 20 (Артем Мазунов) [2022, Детектив, WEBRip 1080p]

Стая через торрент pb.wtf

Раздают: 1 [ 0 KB/s ] Качают: 1 [ 0 KB/s ]
Размер: 42.28 GB | Добавлен: 1 мес. 28 д. назад | Торрент скачан:88 раз
Смотреть онлайн | Скачать   

20-09-2022 01:59 Стая Скачать торрент  

Стая
Год выпуска: 2022
Страна: Россия
Жанр: Детектив
Продолжительность: ~ 00:50:00
Перевод: Не требуется
Субтитры: Русские

Режиссер: Артем Мазунов



В ролях: Вахтанг Беридзе, Андрей Градов, Филипп Бледный, Александр Зельский, Ольга Смирнова, Николай Иванов, Николай Токарев, Константин Тополага, Иван Шибанов, Сергей Чудаков, Ксения Лукьянчикова, Артём Мазунов, Ася Борисова, Александр Пугачёв, Алексей Кирилин, Лилия Мэй, Тимур Абитов

Описание: Капитан полиции Сергей Морозов подрался с любовником жены, который оказался известным в узких кругах бизнесменом. Произошло это после того, как Морозову удалось задержать одного из руководителей Зареченской обладминистрации на получении взятки. Событие попало не только в криминальные сводки, но и в прессу. Московский начальник Морозова, Зимин, попросил своего друга, начальника УВД Зареченска, принять на работу непутёвого оперативника. Чтобы не вылететь со службы и из системы окончательно, Морозову теперь нужно пересидеть в провинции в ожидании, когда всё уляжется.

Качество: WEBRip 1080p
Формат: MKV

Видео: MPEG4 AVC Video, H264, 16:9, 1920x1080, 25 fps, ~6000 kbps, 0.116 bit/pixel
Аудио: 48.0 kHz, AC3 Dolby Digital, 2/0 (L,R) ch, ~ 192 kbps
скриншот  скриншот  скриншот  скриншот  скриншот  скриншот  

General
Unique ID : 208183954170398629650452291491161881650 (0x9C9EC568A12DC76496BE6604E2AABC32)
Complete name : D:\Staya.S01.2022.WEB-DL.(1080p).ExKinoRay\Staya.S01.E01.2022.WEB-DL.(1080p).ExKinoRay.mkv
Format : Matroska
Format version : Version 4 / Version 2
File size : 2.13 GiB
Duration : 49 min 34 s
Overall bit rate : 6 152 kb/s
Encoded date : UTC 2022-09-19 19:57:59
Writing application : mkvmerge v6.9.1 ('Blue Panther') 64bit built on Apr 18 2014 18:23:38
Writing library : libebml v1.3.0 + libmatroska v1.4.1

Video
ID : 1
Format : AVC
Format/Info : Advanced Video Codec
Format profile : [email protected]
Format settings : 2 Ref Frames
Format settings, CABAC : No
Format settings, ReFrames : 2 frames
Codec ID : V_MPEG4/ISO/AVC
Duration : 49 min 34 s
Bit rate mode : Constant
Bit rate : 6 000 kb/s
Width : 1 920 pixels
Height : 1 080 pixels
Display aspect ratio : 16:9
Frame rate mode : Constant
Frame rate : 25.000 FPS
Standard : PAL
Color space : YUV
Chroma subsampling : 4:2:0
Bit depth : 8 bits
Scan type : Progressive
Bits/(Pixel*Frame) : 0.116
Stream size : 2.02 GiB (95%)
Default : Yes
Forced : No
Color range : Limited
Color primaries : BT.709
Transfer characteristics : BT.709
Matrix coefficients : BT.709

Audio
ID : 2
Format : AC-3
Format/Info : Audio Coding 3
Codec ID : A_AC3
Duration : 49 min 34 s
Bit rate mode : Constant
Bit rate : 192 kb/s
Channel(s) : 2 channels
Channel positions : Front: L R
Sampling rate : 48.0 kHz
Frame rate : 31.250 FPS (1536 SPF)
Bit depth : 16 bits
Compression mode : Lossy
Stream size : 68.1 MiB (3%)
Language : Russian
Service kind : Complete Main
Default : Yes
Forced : No

Text
ID : 3
Format : UTF-8
Codec ID : S_TEXT/UTF8
Codec ID/Info : UTF-8 Plain Text
Language : Russian
Default : No
Forced : No

Когда раздача ведётся путём добавления новых серий, при каждом добавлении создётся новый торрент. Чтобы начать докачку новой серии, пользователям необходимо сделать следующее:
(1) остановить скачивание,
(2) удалить старый торрент у себя из клиента (старые серии удалять не надо),
(3) скачать новый торрент и запустить его у себя в клиенте вместо старого, при этом указать клиенту путь в старую папку, куда и должно происходить скачивание новых серий.
Ваш клиент при этом должен произвести хеширование (проверку) старой папки (если не производит сам - помогите ему сделать это), и будет докачивать только те серии, которых у вас ещё нет. Старые серии при этом не удаляются, а продолжают раздаваться!
Eсли вы уже удалили старые серии, то предотвратить повторную закачку старых серий можно, отжав галочку в соответсвующих местах при запуске нового торрента. По возможности, желательно не удалять старые серии как можно дольше, чтобы релизёр не столько продолжал раздавать старые серии, а смог сконцентрироваться на новых.



Скачать Стая через торрент https://i4-imageban-ru.translate.goog/out/2022/09/19/8f586b889efa3d7d0f5932e2255aec38.jpg Скачать, смотреть онлайн Стая бесплантно в хорошем качестве Описание: Капитан полиции Сергей Морозов подрался с любовником жены, который оказался известным в узких кругах бизнесменом. Произошло это ... 9.3 10 12
Info! Золотая раздача, скачанное не засчитывается.
Торрент: Зарегистрирован [2022-10-01 05:57] · скачан: 88 раз
Статус: √ проверено
Размер: 42.28 GB
Как cкачать? Как скачать Стая через торрент | UTorrent




Последний раз редактировалось: bober100 (2022-10-01 05:57), всего редактировалось 3 раз(а)

28-11-2019 20:33  


Отключить вcю реклaмy на сайте, в т.ч. и в плеере онлайн просмотра!

28-09-2022 10:00 Стая Скачать торрент  

Подскажите какая песня на заставке играет



30-09-2022 13:46 Стая Скачать торрент  

интересно зачем одинаковые названия у разных сериалов? неужели совсем фантазии нет?



    Дорогой пользователь! Огромная просьба, поблагодарите релизера, оцените раздачу и оставьте свои комментарий, если Вы скачали Стая через торрент бесплатно!!
    Комментировать посты могут только пользователи прошедшие не сложную регистрацию
    Показать сообщения:    


    Стая через торрент
    Скачать бесплатно Стая
    Стая скачать торрент
    Стая смотреть онлайн
    Cкачать фильм Стая бесплатно
    Стая скачать торрент в хорошем качестве
    Стая смотреть онлайн бесплатно в хорошем качестве
    Вы не можете начинать темы
    Вы не можете отвечать на сообщения
    Вы не можете редактировать свои сообщения
    Вы не можете удалять свои сообщения
    Вы не можете голосовать в опросах
    Вы не можете прикреплять файлы к сообщениям
    Вы можете скачивать файлы
    Стая / Сезон: 1 / Серии: 1-20 из 20 [2022, Детектив, WEBRip 1080p] смотреть онлайн, скачать торрент picoco.icu