Доктор Стрэндж

Лицензия

Добыча

Дубляж

Дом дракона

1 сезон

Тор

Дубляж

В эфире

Дубляж

Там, где раки поют

MVO

Властелин колец

1 сезон

GLOBAL

pack

Рекомендуем

30

Пиратка

ВАЖНО

ВАЖНО

Ghostwire

Пиратка

jed

RePack

nioh2

RePack

RDR2

RePack

NEED FOR SPEED™ PAYBACK

RePack

скачать торрент

Кинопоиск HD

Острые козырьки 6 сезон

6 сезон

FAR CRY 6

RePack

скачать торрент

Лицензия

скачать торрент

MVO

1

1 сезон

скачать торрент

1 сезон

скачать торрент

Лицензия

  

Женщина-Халк: Адвокат / She-Hulk: Attorney at Law / Сезон: 1 / Серии: 1-9 из 9 (Кэт Койро, Ану Валиа) [2022, Фантастика, боевик, драма, комедия, приключения, WEB-DL 1080p] Дубляж [Red Head Sound]

Женщина-Халк: Адвокат через торрент pb.wtf

Раздают: 1 [ 0 KB/s ] Качают: 1 [ 0 KB/s ]
Размер: 12.27 GB | Добавлен: 1 мес. 12 д. назад | Торрент скачан:56 раз
Смотреть онлайн | Скачать   

20-09-2022 08:18 Женщина-Халк: Адвокат Скачать торрент  

Женщина-Халк: Адвокат | She-Hulk: Attorney at Law
«You'll like her when she's angry»
Год выпуска: 2022
Страна: США
Выпущено: Marvel Studios, Disney+
Жанр: Фантастика, боевик, драма, комедия, приключения
Продолжительность: ~ 00:35:00 серия
Перевод: Дублированный | Red Head Sound
Субтитры: отсутствуют

Режиссер: Кэт Койро, Ану Валиа

rating

В ролях: Татьяна Маслани (Tatiana Maslany), Марк Руффало (Mark Ruffalo), Джинджер Гонзага (Ginger Gonzaga), Джамила Джамил (Jameela Jamil), Тим Рот (Tim Roth), Бенедикт Вонг (Benedict Wong), Чарли Кокс (Charlie Cox), Джош Сегарра (Josh Segarra), Гриффин Мэтьюз (Griffin Matthews), Стив Култер (Steve Coulter), Дрю Мэтьюз (Drew Matthews), Брэндон Хирш (Brandon Hirsch)

Описание: После переливания крови двоюродная сестра Брюса Бэннера юристка Дженнифер Уолтерс получает способность во время стресса перевоплощаться в сверхсильное существо. Дженнифер предстоит научиться управлять этим даром и применять его во благо при этом продолжать работать в недавно созданном Отделе по правам сверхлюдей.

Качество: WEB-DL 1080p
Формат: MKV

Видео: MPEG-4 AVC, 1920х1080, ~ 6092 Кбит/с, 24.000 кадр/с
Аудио RUS: 48.0 kHz, AC3 Dolby Digital, 2/0 (L,R) ch, ~ 256 kbps

Общее
Уникальный идентификатор : 243373807579079594088797548596748062229 (0xB71817227671BF7AA4C45F6060E78E15)
Полное имя : D:Женщина-Халк Адвокат_1_сезон_RHS_[scarfilm.org]\She.Hulk.Attorney.at.Law.S01E01_Red_Head_Sound_[scarfilm.org].mkv
Формат : Matroska
Версия формата : Version 4
Размер файла : 1,60 Гбайт
Продолжительность : 35 м. 22 с.
Режим общего битрейта : Переменный
Общий поток : 6 477 Кбит/сек
Дата кодирования : UTC 2022-08-21 10:04:58
Программа кодирования : mkvmerge v6.1.0 ('Old Devil') built on Mar 4 2013 09:10:42
Библиотека кодирования : libebml v1.3.0 + libmatroska v1.4.0

Видео
Идентификатор : 1
Формат : AVC
Формат/Информация : Advanced Video Codec
Профиль формата : [email protected]
Настройки формата : CABAC / 4 Ref Frames
Параметр CABAC формата : Да
Параметр RefFrames формата : 4 кадра
Идентификатор кодека : V_MPEG4/ISO/AVC
Продолжительность : 35 м. 22 с.
Вид битрейта : Переменный
Битрейт : 6 092 Кбит/сек
Максимальный битрейт : 12,7 Мбит/сек
Ширина : 1 920 пикселей
Высота : 1 080 пикселей
Соотношение сторон : 16:9
Режим частоты кадров : Постоянный
Частота кадров : 24,000 кадра/сек
Цветовое пространство : YUV
Субдискретизация насыщенности : 4:2:0
Битовая глубина : 8 бит
Тип развёртки : Прогрессивная
Бит/(Пиксели*Кадры) : 0.122
Размер потока : 1,50 Гбайт (94%)
Default : Да
Forced : Нет
Цветовой диапазон : Limited
Основные цвета : BT.709
Характеристики трансфера : BT.709
Коэффициенты матрицы : BT.709

Аудио
Идентификатор : 2
Формат : AC-3
Формат/Информация : Audio Coding 3
Коммерческое название : Dolby Digital
Идентификатор кодека : A_AC3
Продолжительность : 35 м. 22 с.
Вид битрейта : Постоянный
Битрейт : 256 Кбит/сек
Каналы : 2 канала
Channel layout : L R
Частота : 48,0 КГц
Частота кадров : 31,250 кадров/сек (1536 SPF)
Метод сжатия : С потерями
Размер потока : 64,8 Мбайт (4%)
Заголовок : Дубляж - Red Head Sound
Язык : Russian
Service kind : Complete Main
Default : Да
Forced : Нет

Меню
00:00:00.000 : en:Begin
00:32:16.417 : en:Credits

Когда раздача ведётся путём добавления новых серий, при каждом добавлении создётся новый торрент. Чтобы начать докачку новой серии, пользователям необходимо сделать следующее:
(1) остановить скачивание,
(2) удалить старый торрент у себя из клиента (старые серии удалять не надо),
(3) скачать новый торрент и запустить его у себя в клиенте вместо старого, при этом указать клиенту путь в старую папку, куда и должно происходить скачивание новых серий.
Ваш клиент при этом должен произвести хеширование (проверку) старой папки (если не производит сам - помогите ему сделать это), и будет докачивать только те серии, которых у вас ещё нет. Старые серии при этом не удаляются, а продолжают раздаваться!
Eсли вы уже удалили старые серии, то предотвратить повторную закачку старых серий можно, отжав галочку в соответсвующих местах при запуске нового торрента. По возможности, желательно не удалять старые серии как можно дольше, чтобы релизёр не столько продолжал раздавать старые серии, а смог сконцентрироваться на новых.




Скачать Женщина-Халк: Адвокат через торрент https://i120.fastpic.org/big/2022/0821/55/ae81fe9cc07beaffd987da0810f26055.png Скачать, смотреть онлайн Женщина-Халк: Адвокат бесплантно в хорошем качестве Описание: После переливания крови двоюродная сестра Брюса Бэннера юристка Дженнифер Уолтерс получает способность во время стресса ... 5.2 10 21
Торрент: Зарегистрирован [2022-10-17 18:32] · скачан: 56 раз
Статус: √ проверено
Размер: 12.27 GB
Как cкачать? Как скачать Женщина-Халк: Адвокат через торрент | UTorrent

% Раздел Тема Автор DL S | L
Зарубежные сериалы [ 15.71 GB ] Женщина-Халк: Адвокат / She-Hulk: Attorney at Law / Сезон: 1 / Серии: 1-9 из 9 | LostFilm | 1080p bober100 Скачать
5 | 0
Зарубежные сериалы [ 4.83 GB ] Женщина-Халк: Адвокат / She-Hulk: Attorney at Law / Сезон: 1 / Серии: 1-9 из 9 | LostFilm | DLRip bober100 Скачать
2 | 2

28-11-2019 20:33  


Отключить вcю реклaмy на сайте, в т.ч. и в плеере онлайн просмотра!

    Дорогой пользователь! Огромная просьба, поблагодарите релизера, оцените раздачу и оставьте свои комментарий, если Вы скачали Женщина-Халк: Адвокат через торрент бесплатно!!
    Комментировать посты могут только пользователи прошедшие не сложную регистрацию
    Показать сообщения:    


    Женщина-Халк: Адвокат через торрент
    Скачать бесплатно Женщина-Халк: Адвокат
    Женщина-Халк: Адвокат скачать торрент
    Женщина-Халк: Адвокат смотреть онлайн
    Cкачать фильм Женщина-Халк: Адвокат бесплатно
    Женщина-Халк: Адвокат скачать торрент в хорошем качестве
    Женщина-Халк: Адвокат смотреть онлайн бесплатно в хорошем качестве
    Вы не можете начинать темы
    Вы не можете отвечать на сообщения
    Вы не можете редактировать свои сообщения
    Вы не можете удалять свои сообщения
    Вы не можете голосовать в опросах
    Вы не можете прикреплять файлы к сообщениям
    Вы можете скачивать файлы
    Женщина-Халк: Адвокат / She-Hulk: Attorney at Law / Сезон: 1 / Серии: 1-9 из 9 [2022, Фантастика, боевик, драма, комедия, приключения, WEB-DL 1080p] Дубляж [Red Head Sound] смотреть онлайн, скачать торрент picoco.icu