Лицензия

MVO

1

1 сезон

Лицензия

Лицензия

13

MVO

1 сезон

Deluxe Edition

pack

Рекомендуем

30

Repack

ВАЖНО

ВАЖНО

Ghostwire

RePack

jed

RePack

fifa19

RePack

RDR2

RePack

NEED FOR SPEED™ PAYBACK

RePack

Кинопоиск HD

 Острые козырьки 6 сезон

6 сезон

FAR CRY 6

RePack

Лицензия

MVO

1

1 сезон

1 сезон

Лицензия

  

Отомсти за меня / Do Revenge (Дженн Робинсон) [2022, Комедия, WEB-DL 1080p] MVO [Jaskier]

Отомсти за меня через торрент pb.wtf

Раздают: 9 [ 240 KB/s ] Качают: 1 [ 0 KB/s ]
Размер: 4.02 GB | Добавлен: 3 д. назад | Торрент скачан:114 раз
Смотреть онлайн Отомсти за меня | Скачать   

21-09-2022 06:56 Отомсти за меня Скачать торрент  

Отомсти за меня
Do Revenge

Год выпуска: 2022
Страна: США
Выпущено: Likely Story
Жанр: Комедия
Продолжительность: 02:00:48
Перевод: Профессиональный (многоголосый) | Jaskier
Субтитры: Русские, украинские, английские

Режиссер: Дженн Робинсон

rating

В ролях: Камила Мендес, Майя Хоук, Майя Рефикко, Пэрис Берелс, Остин Абрамс, Кэсседи МакКлинси, Софи Тёрнер, Риш Шах, Элиза Беннетт, Сара Мишель Геллар

Описание: Дреа и Элеонор: первая желает отомстить своему бывшему парню, слившему в сеть секс-видео, а вторая намерена наказать хулиганку Клариссу, которая много лет назад пустила о ней клеветнические слухи в летнем лагере. Обе девушки объединяются, чтобы разрушить жизни своих обидчиков.

Качество: WEB-DL 1080p
Формат: MKV

Видео: MPEG-4 AVC, 1920x1080, (16:9), 3609 kbps, 24 fps
Аудио №1: 48 kHz, AC3, 5.1, 384 kbps | RUS
Аудио №2: 48 kHz, E-AC3 JOC, 5.1, 768 kbps | ENG
скриншот  скриншот  скриншот  скриншот  скриншот  скриншот  

Общее
Уникальный идентификатор : 124002354002935817676130908438857655519 (0x5D49FC13A715D53DD79B538AEBE624DF)
Полное имя : D:Do.Revenge.2022.1080p.NF.WEB-DL.ExKinoRay.mkv
Формат : Matroska
Версия формата : Version 4
Размер файла : 4,02 Гбайт
Продолжительность : 2 ч. 0 м.
Режим общего битрейта : Переменный
Общий поток : 4 764 Кбит/сек
Название фильма : Do Revenge (2022)
Дата кодирования : UTC 2022-09-21 06:16:21
Программа кодирования : mkvmerge v62.0.0 ('Apollo') 64-bit
Библиотека кодирования : libebml v1.4.2 + libmatroska v1.6.4

Видео
Идентификатор : 1
Формат : AVC
Формат/Информация : Advanced Video Codec
Профиль формата : [email protected]
Настройки формата : CABAC / 3 Ref Frames
Параметр CABAC формата : Да
Параметр RefFrames формата : 3 кадра
Идентификатор кодека : V_MPEG4/ISO/AVC
Продолжительность : 2 ч. 0 м.
Вид битрейта : Переменный
Битрейт : 3 609 Кбит/сек
Номинальный битрейт : 4 870 Кбит/сек
Максимальный битрейт : 7 305 Кбит/сек
Ширина : 1 920 пикселей
Высота : 1 080 пикселей
Соотношение сторон : 16:9
Режим частоты кадров : Постоянный
Частота кадров : 24,000 кадра/сек
Цветовое пространство : YUV
Субдискретизация насыщенности : 4:2:0
Битовая глубина : 8 бит
Тип развёртки : Прогрессивная
Бит/(Пиксели*Кадры) : 0.071
Размер потока : 2,97 Гбайт (74%)
Библиотека кодирования : x264 core 148 r2727 7d026e8
Настройки программы : cabac=1 / ref=3 / deblock=1:0:0 / analyse=0x1:0x111 / me=umh / subme=10 / psy=1 / psy_rd=1.00:0.00 / mixed_ref=1 / me_range=24 / chroma_me=1 / trellis=2 / 8x8dct=0 / cqm=0 / deadzone=21,11 / fast_pskip=1 / chroma_qp_offset=-2 / threads=6 / lookahead_threads=1 / sliced_threads=0 / nr=0 / decimate=1 / interlaced=0 / bluray_compat=0 / stitchable=1 / constrained_intra=0 / bframes=2 / b_pyramid=0 / b_adapt=2 / b_bias=0 / direct=3 / weightb=1 / open_gop=0 / weightp=2 / keyint=250 / keyint_min=24 / scenecut=0 / intra_refresh=0 / rc_lookahead=48 / rc=2pass / mbtree=1 / bitrate=4870 / ratetol=1.0 / qcomp=0.50 / qpmin=6 / qpmax=51 / qpstep=4 / cplxblur=20.0 / qblur=0.5 / vbv_maxrate=7305 / vbv_bufsize=9740 / nal_hrd=vbr / filler=0 / ip_ratio=1.40 / aq=1:1.00
Язык : English
Default : Да
Forced : Нет

Аудио #1
Идентификатор : 2
Формат : AC-3
Формат/Информация : Audio Coding 3
Коммерческое название : Dolby Digital
Идентификатор кодека : A_AC3
Продолжительность : 2 ч. 0 м.
Вид битрейта : Постоянный
Битрейт : 384 Кбит/сек
Каналы : 6 каналов
Channel layout : L R C LFE Ls Rs
Частота : 48,0 КГц
Частота кадров : 31,250 кадров/сек (1536 SPF)
Метод сжатия : С потерями
Размер потока : 332 Мбайт (8%)
Заголовок : MVO | DD 5.1 @ 384 kbps - Jaskier
Язык : Russian
Service kind : Complete Main
Default : Да
Forced : Нет

Аудио #2
Идентификатор : 3
Формат : E-AC-3 JOC
Формат/Информация : Enhanced AC-3 with Joint Object Coding
Коммерческое название : Dolby Digital Plus with Dolby Atmos
Идентификатор кодека : A_EAC3
Продолжительность : 2 ч. 0 м.
Вид битрейта : Постоянный
Битрейт : 768 Кбит/сек
Каналы : 6 каналов
Channel layout : L R C LFE Ls Rs
Частота : 48,0 КГц
Частота кадров : 31,250 кадров/сек (1536 SPF)
Метод сжатия : С потерями
Размер потока : 664 Мбайт (16%)
Заголовок : Original | DD+ 5.1 @ 640 kbps
Язык : English
Service kind : Complete Main
Default : Да
Forced : Нет
Complexity index : 16
Number of dynamic objects : 15
Bed channel count : 1 канал
Bed channel configuration : LFE

Текст #1
Идентификатор : 4
Формат : UTF-8
Идентификатор кодека : S_TEXT/UTF8
Идентификатор кодека/Информация : UTF-8 Plain Text
Заголовок : Russian
Язык : Russian
Default : Нет
Forced : Нет

Текст #2
Идентификатор : 5
Формат : UTF-8
Идентификатор кодека : S_TEXT/UTF8
Идентификатор кодека/Информация : UTF-8 Plain Text
Заголовок : Ukrainian
Язык : Ukrainian
Default : Нет
Forced : Нет

Текст #3
Идентификатор : 6
Формат : UTF-8
Идентификатор кодека : S_TEXT/UTF8
Идентификатор кодека/Информация : UTF-8 Plain Text
Заголовок : English [SDH]
Язык : English
Default : Нет
Forced : Нет




Скачать Отомсти за меня через торрент https://i5-imageban-ru.translate.goog/out/2022/09/21/a456a05f70dd398ed1b34d3327b3ce4a.png Скачать, смотреть онлайн Отомсти за меня бесплантно в хорошем качестве Описание: Дреа и Элеонор: первая желает отомстить своему бывшему парню, слившему в сеть секс-видео, а вторая намерена наказать хулиганку ... 10 10 6
Info! Золотая раздача, скачанное не засчитывается.
Торрент: Зарегистрирован [2022-09-21 06:56] · скачан: 114 раз
Статус: √ проверено
Размер: 4.02 GB
Как cкачать? Как скачать Отомсти за меня через торрент | UTorrent




Последний раз редактировалось: bober100 (2022-09-21 16:58), всего редактировалось 1 раз

28-11-2019 20:33  

Отключить вcю реклaмy на сайте

21-09-2022 09:22 Отомсти за меня Скачать торрент  

Скачал, 5 минут посмотрел, удалил. у фильма очень завышена оценка. Фильм на любителя.



21-09-2022 18:53 Отомсти за меня Скачать торрент  

а перевод будет нормальный?



    Дорогой пользователь! Огромная просьба, поблагодарите релизера, оцените раздачу и оставьте свои комментарий, если Вы скачали Отомсти за меня через торрент бесплатно!!
    Комментировать посты могут только пользователи прошедшие не сложную регистрацию
    Показать сообщения:    


    Отомсти за меня через торрент
    Скачать бесплатно Отомсти за меня
    Отомсти за меня скачать торрент
    Отомсти за меня смотреть онлайн
    Cкачать фильм Отомсти за меня бесплатно
    Отомсти за меня скачать торрент в хорошем качестве
    Отомсти за меня смотреть онлайн бесплатно в хорошем качестве
    Вы не можете начинать темы
    Вы не можете отвечать на сообщения
    Вы не можете редактировать свои сообщения
    Вы не можете удалять свои сообщения
    Вы не можете голосовать в опросах
    Вы не можете прикреплять файлы к сообщениям
    Вы можете скачивать файлы