Лицензия

MVO

1

1 сезон

Лицензия

Лицензия

13

MVO

1 сезон

Deluxe Edition

pack

Рекомендуем

30

Repack

ВАЖНО

ВАЖНО

Ghostwire

RePack

jed

RePack

fifa19

RePack

RDR2

RePack

NEED FOR SPEED™ PAYBACK

RePack

Кинопоиск HD

 Острые козырьки 6 сезон

6 сезон

FAR CRY 6

RePack

Лицензия

MVO

1

1 сезон

1 сезон

Лицензия

  

Игры агентов / Агентская игра / Игра в агента / Agent Game (Грант С. Джонсон) [2022, Боевик, триллер, BDRip-AVC] MVO [Лицензия]

Игры агентов через торрент pb.wtf

Раздают: 6 [ 0 KB/s ]
Размер: 1.68 GB | Добавлен: 3 д. назад | Торрент скачан:47 раз
Смотреть онлайн Игры агентов | Скачать   

21-09-2022 12:59 Игры агентов Скачать торрент  

Игры агентов / Агентская игра / Игра в агента
Agent Game

Год выпуска: 2022
Страна: США
Студия: Lionsgate, Saban Films, Taylor & Dodge, Project Infinity
Жанр: Боевик, триллер
Продолжительность: 01:30:10
Перевод: Профессиональный (многоголосый) | Лицензия
Субтитры: Русские (Forced, full), английские

Режиссер: Грант С. Джонсон

rating

В ролях: Мэл Гибсон, Джейсон Айзекс, Кэти Кэссиди, Адан Канто, Энни Илонзех, Бархад Абди, Риз Койро, Блю Кимбл, Мэтт Риди, Сара Арейано, Габби Коно, Пол Бёрк, Ник ДеКей, Анджела Ленц, Марк Вайнхандл, Рой Люк, Роберт Боб Янг, Дермот Малруни

Описание: Офицер ЦРУ Харрис участвует в миссиях по захвату иностранных граждан и доставке их в секретное место для допроса. Харриса обвиняют в убийстве шефа и задержанного во время допроса и он вынужден бежать от группы оперативников, посланных за ним во главе с безжалостным двойным агентом Олсеном и его подручным Виссером.

Качество: BDRip-AVC
Формат: MKV

Видео: MPEG-4 AVC, 1024x552 at 23.976 fps, [email protected], ~1837 kbps
Аудио 1: AC3, 6 ch, ~384 kbps - | Русский |
Аудио 2: AC3, 6 ch, ~448 kbps - | Английский |
скриншот  скриншот  скриншот  скриншот  

264 [info]: frame I:846 Avg QP:11.72 size: 48090
x264 [info]: frame P:26423 Avg QP:13.45 size: 21731
x264 [info]: frame B:102452 Avg QP:16.37 size: 6122
x264 [info]: consecutive B-frames: 2.6% 3.2% 6.4% 10.0% 14.8% 37.4% 9.0% 3.1% 3.0% 5.3% 2.2% 1.2% 0.7%

General
Unique ID : 253656965550106630867748563544299770325 (0xBED48DF759FF71037E4E83A7F53791D5)
Complete name : D:DELtAgent.Game.2022.BDRip.x264.seleZen.mkv
Format : Matroska
Format version : Version 4
File size : 1.68 GiB
Duration : 1 h 30 min
Overall bit rate : 2 671 kb/s
Movie name : Agent.Game.2022.BDRip.x264.seleZen
Encoded date : UTC 2022-09-21 11:42:44
Writing application : mkvmerge v70.0.0 ('Caught A Lite Sneeze') 64-bit
Writing library : libebml v1.4.2 + libmatroska v1.6.4
Cover : Yes
Attachments : cover.jpg / small_cover.jpg

Video
ID : 1
Format : AVC
Format/Info : Advanced Video Codec
Format profile : [email protected]
Format settings : CABAC / 14 Ref Frames
Format settings, CABAC : Yes
Format settings, Reference : 14 frames
Codec ID : V_MPEG4/ISO/AVC
Duration : 1 h 30 min
Bit rate : 1 837 kb/s
Width : 1 024 pixels
Height : 552 pixels
Display aspect ratio : 1.85:1
Frame rate mode : Constant
Frame rate : 23.976 (24000/1001) FPS
Color space : YUV
Chroma subsampling : 4:2:0
Bit depth : 8 bits
Scan type : Progressive
Bits/(Pixel*Frame) : 0.136
Stream size : 1.16 GiB (69%)
Title : -=DoMiNo=-
Writing library : x264 core 164 by -=DoMiNo=-
Encoding settings : cabac=1 / ref=14 / deblock=1:-3:-2 / analyse=0x3:0x133 / me=umh / subme=10 / psy=1 / psy_rd=1.02:0.03 / mixed_ref=1 / me_range=32 / chroma_me=1 / trellis=2 / 8x8dct=1 / cqm=0 / deadzone=21,11 / fast_pskip=1 / chroma_qp_offset=-3 / threads=16 / lookahead_threads=4 / sliced_threads=0 / nr=0 / decimate=1 / interlaced=0 / bluray_compat=0 / constrained_intra=0 / bframes=12 / b_pyramid=2 / b_adapt=2 / b_bias=0 / direct=1 / weightb=1 / open_gop=0 / weightp=2 / keyint=250 / keyint_min=23 / scenecut=40 / intra_refresh=0 / rc_lookahead=60 / rc=crf / mbtree=0 / crf=18.0 / qcomp=0.65 / qpmin=0 / qpmax=69 / qpstep=4 / vbv_maxrate=50000 / vbv_bufsize=62500 / crf_max=0.0 / nal_hrd=none / filler=0 / ip_ratio=1.40 / pb_ratio=1.30 / aq=3:0.80
Language : English
Default : Yes
Forced : No

Audio #1
ID : 2
Format : AC-3
Format/Info : Audio Coding 3
Commercial name : Dolby Digital
Codec ID : A_AC3
Duration : 1 h 30 min
Bit rate mode : Constant
Bit rate : 384 kb/s
Channel(s) : 6 channels
Channel layout : L R C LFE Ls Rs
Sampling rate : 48.0 kHz
Frame rate : 31.250 FPS (1536 SPF)
Compression mode : Lossy
Stream size : 248 MiB (14%)
Title : MVO [LIC]
Language : Russian
Service kind : Complete Main
Default : Yes
Forced : Yes

Audio #2
ID : 3
Format : AC-3
Format/Info : Audio Coding 3
Commercial name : Dolby Digital
Codec ID : A_AC3
Duration : 1 h 30 min
Bit rate mode : Constant
Bit rate : 448 kb/s
Channel(s) : 6 channels
Channel layout : L R C LFE Ls Rs
Sampling rate : 48.0 kHz
Frame rate : 31.250 FPS (1536 SPF)
Compression mode : Lossy
Stream size : 289 MiB (17%)
Title : Original
Language : English
Service kind : Complete Main
Default : No
Forced : No

Text #1
ID : 4
Format : UTF-8
Codec ID : S_TEXT/UTF8
Codec ID/Info : UTF-8 Plain Text
Duration : 1 h 27 min
Bit rate : 2 b/s
Count of elements : 21
Stream size : 1.30 KiB (0%)
Title : Forced
Language : Russian
Default : Yes
Forced : No

Text #2
ID : 5
Format : UTF-8
Codec ID : S_TEXT/UTF8
Codec ID/Info : UTF-8 Plain Text
Duration : 1 h 28 min
Bit rate : 86 b/s
Count of elements : 1162
Stream size : 56.1 KiB (0%)
Title : Full
Language : Russian
Default : No
Forced : No

Text #3
ID : 6
Format : UTF-8
Codec ID : S_TEXT/UTF8
Codec ID/Info : UTF-8 Plain Text
Duration : 1 h 22 min
Bit rate : 59 b/s
Count of elements : 1083
Stream size : 36.1 KiB (0%)
Title : Full
Language : English
Default : No
Forced : No

Menu
00:00:00.000 : en:Chapter 01
00:06:31.558 : en:Chapter 02
00:09:06.129 : en:Chapter 03
00:15:50.491 : en:Chapter 04
00:22:57.376 : en:Chapter 05
00:29:20.801 : en:Chapter 06
00:31:53.620 : en:Chapter 07
00:36:58.133 : en:Chapter 08
00:41:44.836 : en:Chapter 09
00:46:15.022 : en:Chapter 10
00:50:23.103 : en:Chapter 11
00:56:16.748 : en:Chapter 12
01:02:58.191 : en:Chapter 13
01:08:56.132 : en:Chapter 14
01:14:29.298 : en:Chapter 15
01:22:17.808 : en:Chapter 16




Скачать Игры агентов через торрент https://i120.fastpic.org/big/2022/0920/9c/cb618c558d4ffee70685040f4b6a069c.jpg Скачать, смотреть онлайн Игры агентов бесплантно в хорошем качестве Описание: Офицер ЦРУ Харрис участвует в миссиях по захвату иностранных граждан и доставке их в секретное место для допроса. Харриса ... 10 10 6
Торрент: Зарегистрирован [2022-09-21 12:59] · скачан: 47 раз
Статус: √ проверено
Размер: 1.68 GB
Как cкачать? Как скачать Игры агентов через торрент | UTorrent

% Раздел Тема Автор DL S | L
Фильмы 2022 [DVDrip, WEB-DLRip, HDrip] (DUB, MVO) [ 1.46 GB ] Игры агентов / Агентская игра / Игра в агента / Agent Game | Лицензия | BDRip bober100 Скачать
7 | 0
Фильмы 2022 [DVDrip, WEB-DLRip, HDrip] (DUB, MVO) [ 745 MB ] Игры агентов / Агентская игра / Игра в агента / Agent Game | Лицензия | BDRip bober100 Скачать
2 | 0
Фильмы [HD 720p, 1080p] (Хороший звук DUB, MVO) [ 3.68 GB ] Игры агентов / Агентская игра / Игра в агента / Agent Game | Jaskier | 720p bober100 Скачать
2 | 0
Фильмы 2022 [DVDrip, WEB-DLRip, HDrip] (DUB, MVO) [ 1.46 GB ] Игры агентов / Agent Game | Jaskier | WEBRip bober100 Скачать
2 | 0
Фильмы [HD 720p, 1080p] (Хороший звук DUB, MVO) [ 8.9 GB ] Игры агентов / Агентская игра / Игра в агента / Agent Game | Jaskier | 1080p bober100 Скачать
1 | 0

28-11-2019 20:33  

Отключить вcю реклaмy на сайте

    Дорогой пользователь! Огромная просьба, поблагодарите релизера, оцените раздачу и оставьте свои комментарий, если Вы скачали Игры агентов через торрент бесплатно!!
    Комментировать посты могут только пользователи прошедшие не сложную регистрацию
    Показать сообщения:    


    Игры агентов через торрент
    Скачать бесплатно Игры агентов
    Игры агентов скачать торрент
    Игры агентов смотреть онлайн
    Cкачать фильм Игры агентов бесплатно
    Игры агентов скачать торрент в хорошем качестве
    Игры агентов смотреть онлайн бесплатно в хорошем качестве
    Вы можете начинать темы
    Вы можете отвечать на сообщения
    Вы не можете редактировать свои сообщения
    Вы не можете удалять свои сообщения
    Вы не можете голосовать в опросах
    Вы не можете прикреплять файлы к сообщениям
    Вы можете скачивать файлы