Доктор Стрэндж

Лицензия

Добыча

MVO

Дом дракона

1 сезон

Тор

Лицензия

Мэверик

Лицензия

Там, где раки поют

MVO

Властелин колец

1 сезон

Ultimate

pack

Рекомендуем

30

Repack

ВАЖНО

ВАЖНО

Ghostwire

RePack

jed

RePack

nioh2

RePack

RDR2

RePack

NEED FOR SPEED™ PAYBACK

RePack

скачать торрент

Кинопоиск HD

Острые козырьки 6 сезон

6 сезон

FAR CRY 6

RePack

скачать торрент

Лицензия

скачать торрент

MVO

1

1 сезон

скачать торрент

1 сезон

скачать торрент

Лицензия

  

Не говори никому / Gæsterne / Speak No Evil (Кристиан Тафдруп) [2022, Триллер, WEB-DLRip-AVC] MVO [Jaskier]

Не говори никому через торрент pb.wtf

Раздают: 9 [ 31 KB/s ]
Размер: 1.38 GB | Добавлен: 11 д. назад | Торрент скачан:157 раз
Смотреть онлайн Не говори никому | Скачать   

21-09-2022 16:40 Не говори никому Скачать торрент  

Не говори никому
Gæsterne / Speak No Evil

Год выпуска: 2022
Страна: Дания, Нидерланды
Выпущено: Profile Pictures, OAK Motion Pictures, Danish Film Institute
Жанр: Триллер
Продолжительность: 01:33:42
Перевод: Профессиональный (многоголосый) | Jaskier
Субтитры: отсутствуют

Режиссер: Кристиан Тафдруп

rating

В ролях: Мортен Буриан, Сидсель Сим Кох, Федя ван Хейт, Карина Смолдерс, Лива Форсберг, Мариус Дамслев, Ишем Якуби, Джеспер Дюпон, Леа Бааструп Рённе, Адриан Бланшар

Описание: Во время отпуска в Италии молодая семья знакомится с приятной парой с немым ребенком. Несколько месяцев спустя они получают неожиданное приглашение посетить загородный дом. Выходные превращаются в настоящий кошмар, когда выясняется, что их новые друзья совсем не те, за кого себя выдают.

Качество: WEB-DLRip-AVC
Формат: MKV

Видео: MPEG-4 AVC, 1032x432 (2,40:1), 1345 kbps, 25 fps
Аудио#1: 48 kHz, AC3, 5.1, 384 kbps | RUS
Аудио#2: 48 kHz, AC3, 5.1, 384 kbps | DAN
скриншот  скриншот  скриншот  скриншот  

Общее
Уникальный идентификатор : 91072332765913399758917946739290804085 (0x4483E4ADDC656B4FC9EFC5D13CA00F75)
Полное имя : D:Speak.No.Evil.2022.WEB-DLRip.x264.ExKinoRay.mkv
Формат : Matroska
Версия формата : Version 4
Размер файла : 1,38 Гбайт
Продолжительность : 1 ч. 33 м.
Общий поток : 2 115 Кбит/сек
Название фильма : Speak No Evil (2022)
Дата кодирования : UTC 2022-09-21 16:06:49
Программа кодирования : mkvmerge v62.0.0 ('Apollo') 64-bit
Библиотека кодирования : libebml v1.4.2 + libmatroska v1.6.4 / Lavf59.16.100
ENCODING_INFO : MATROSKA,WEBM > MATROSKA Пользовательский

Видео
Идентификатор : 1
Формат : AVC
Формат/Информация : Advanced Video Codec
Профиль формата : [email protected]
Настройки формата : CABAC / 12 Ref Frames
Параметр CABAC формата : Да
Параметр RefFrames формата : 12 кадров
Идентификатор кодека : V_MPEG4/ISO/AVC
Продолжительность : 1 ч. 33 м.
Битрейт : 1 345 Кбит/сек
Ширина : 1 032 пикселя
Высота : 432 пикселя
Соотношение сторон : 2,40:1
Режим частоты кадров : Постоянный
Частота кадров : 25,000 кадров/сек
Цветовое пространство : YUV
Субдискретизация насыщенности : 4:2:0
Битовая глубина : 8 бит
Тип развёртки : Прогрессивная
Бит/(Пиксели*Кадры) : 0.121
Размер потока : 902 Мбайт (64%)
Заголовок : potroks
Библиотека кодирования : x264 core 163
Настройки программы : cabac=1 / ref=12 / deblock=1:-2:-2 / analyse=0x3:0x133 / me=umh / subme=11 / psy=1 / psy_rd=1.00:0.05 / mixed_ref=1 / me_range=32 / chroma_me=0 / trellis=2 / 8x8dct=1 / cqm=0 / deadzone=21,11 / fast_pskip=0 / chroma_qp_offset=-3 / threads=19 / lookahead_threads=3 / sliced_threads=0 / nr=0 / decimate=1 / interlaced=0 / bluray_compat=0 / constrained_intra=0 / bframes=10 / b_pyramid=2 / b_adapt=2 / b_bias=0 / direct=0 / weightb=1 / open_gop=0 / weightp=2 / keyint=240 / keyint_min=23 / scenecut=40 / intra_refresh=0 / rc_lookahead=100 / rc=2pass / mbtree=0 / bitrate=1345 / ratetol=1.0 / qcomp=0.70 / qpmin=0 / qpmax=69 / qpstep=5 / cplxblur=20.0 / qblur=0.5 / vbv_maxrate=50000 / vbv_bufsize=62500 / nal_hrd=none / filler=0 / ip_ratio=1.40 / pb_ratio=1.30 / aq=1:0.80
Язык : Danish
Default : Да
Forced : Нет

Аудио #1
Идентификатор : 2
Формат : AC-3
Формат/Информация : Audio Coding 3
Коммерческое название : Dolby Digital
Идентификатор кодека : A_AC3
Продолжительность : 1 ч. 33 м.
Вид битрейта : Постоянный
Битрейт : 384 Кбит/сек
Каналы : 6 каналов
Channel layout : L R C LFE Ls Rs
Частота : 48,0 КГц
Частота кадров : 31,250 кадров/сек (1536 SPF)
Метод сжатия : С потерями
Размер потока : 257 Мбайт (18%)
Заголовок : MVO | DD 5.1 @ 384 kbps - Jaskier
Язык : Russian
Service kind : Complete Main
Default : Да
Forced : Нет

Аудио #2
Идентификатор : 3
Формат : AC-3
Формат/Информация : Audio Coding 3
Коммерческое название : Dolby Digital
Идентификатор кодека : A_AC3
Продолжительность : 1 ч. 33 м.
Вид битрейта : Постоянный
Битрейт : 384 Кбит/сек
Каналы : 6 каналов
Channel layout : L R C LFE Ls Rs
Частота : 48,0 КГц
Частота кадров : 31,250 кадров/сек (1536 SPF)
Метод сжатия : С потерями
Размер потока : 257 Мбайт (18%)
Заголовок : Original | DD 5.1 @ 384 kbps
Язык : Danish
Service kind : Complete Main
Default : Нет
Forced : Нет




Скачать Не говори никому через торрент https://i1-imageban-ru.translate.goog/out/2022/08/11/38641df5233b257e0a868173294495e9.jpg Скачать, смотреть онлайн Не говори никому бесплантно в хорошем качестве Описание: Во время отпуска в Италии молодая семья знакомится с приятной парой с немым ребенком. Несколько месяцев спустя они получают ... 9.5 10 8
Торрент: Зарегистрирован [2022-09-21 16:40] · скачан: 157 раз
Статус: √ проверено
Размер: 1.38 GB
Как cкачать? Как скачать Не говори никому через торрент | UTorrent

% Раздел Тема Автор DL S | L
Фильмы (WEB-DL 720p, 1080p) [ 1.68 GB ] Не говори никому / Gæsterne / Speak No Evil | TVShows | DLRip 720p -=BIGBOSS=- Скачать
6 | 0

28-11-2019 20:33  

Отключить вcю реклaмy на сайте

    Дорогой пользователь! Огромная просьба, поблагодарите релизера, оцените раздачу и оставьте свои комментарий, если Вы скачали Не говори никому через торрент бесплатно!!
    Комментировать посты могут только пользователи прошедшие не сложную регистрацию
    Показать сообщения:    


    Не говори никому через торрент
    Скачать бесплатно Не говори никому
    Не говори никому скачать торрент
    Не говори никому смотреть онлайн
    Cкачать фильм Не говори никому бесплатно
    Не говори никому скачать торрент в хорошем качестве
    Не говори никому смотреть онлайн бесплатно в хорошем качестве
    Вы можете начинать темы
    Вы можете отвечать на сообщения
    Вы не можете редактировать свои сообщения
    Вы не можете удалять свои сообщения
    Вы не можете голосовать в опросах
    Вы не можете прикреплять файлы к сообщениям
    Вы можете скачивать файлы