Лицензия

MVO

1

1 сезон

Лицензия

Лицензия

13

MVO

1 сезон

Deluxe Edition

pack

Рекомендуем

30

Repack

ВАЖНО

ВАЖНО

Ghostwire

RePack

jed

RePack

fifa19

RePack

RDR2

RePack

NEED FOR SPEED™ PAYBACK

RePack

Кинопоиск HD

 Острые козырьки 6 сезон

6 сезон

FAR CRY 6

RePack

Лицензия

MVO

1

1 сезон

1 сезон

Лицензия

  

Последние выжившие / Last Survivors / SHTF (Дрю Милреа) [2021, Фантастика, триллер, BDRip 1080p] DUB [iTunes]

Последние выжившие через торрент pb.wtf

Раздают: 10 [ 419 KB/s ]
Размер: 7.61 GB | Добавлен: 3 д. назад | Торрент скачан:66 раз
Смотреть онлайн Последние выжившие | Скачать   

21-09-2022 18:53 Последние выжившие Скачать торрент  

Последние выжившие
Last Survivors | SHTF

Год выпуска: 2021
Страна: США
Выпущено: El Ride Productions, Fry Cook Productions, SSS Entertainment, Yadav Productions
Жанр: Фантастика, триллер
Продолжительность: 01:38:49
Перевод: Дублированный | iTunes
Субтитры: Английские (полные), Немецкие (форсированные (хардсаб))

Режиссер: Дрю Милреа

rating

В ролях: Дрю Ван Экер, Алисия Сильверстоун, Стивен Мойер, Марк Фамильетти, Бенжамин Артур, Акааш Ядав, Саймон Лис

Описание: Оградившись от всего мира, Трой и его сын Джейк живут в лесной глуши. Когда отец получает ранение, сын отправляется во внешний мир за спасительным лекарством. Несмотря на приказ убивать любого, с кем он столкнется в пути, Джейк вступает в запрещенные отношения с таинственной женщиной Генриеттой.

Качество: BDRip 1080p
Формат: MKV

Видео: 1920x680 (2.824:1), 23.976 fps, MPEG-4 AVC ~ 10 000 Kbps avg, 0.319 bit/pixel
Аудио: AC3, 48 kHz, 6 ch, ~384.00 kbps avg | русский | DUB |
Аудио: AC3, 48 kHz, 6 ch, ~640.00 kbps avg | английский |
скриншот  скриншот  скриншот  скриншот  скриншот  скриншот  

x264 [info]: frame I:968 Avg QP:13.22 size:146347
x264 [info]: frame P:28871 Avg QP:14.85 size: 96102
x264 [info]: frame B:112313 Avg QP:16.77 size: 40003
x264 [info]: consecutive B-frames: 1.6% 2.0% 7.1% 9.8% 13.8% 58.8% 6.5% 0.2% 0.1%
x264 [info]: mb I I16..4: 0.6% 97.4% 2.0%
x264 [info]: mb P I16..4: 0.4% 53.3% 0.4% P16..4: 19.4% 16.9% 9.1% 0.0% 0.0% skip: 0.4%
x264 [info]: mb B I16..4: 0.1% 9.6% 0.0% B16..8: 27.2% 16.4% 6.3% direct:19.3% skip:21.0% L0:40.9% L1:27.9% BI:31.2%
x264 [info]: 8x8 transform intra:98.5% inter:69.3%
x264 [info]: direct mvs spatial:98.6% temporal:1.4%
x264 [info]: coded y, uvDC, uvAC intra: 97.6% 63.0% 32.2% inter: 49.7% 21.3% 4.5%
x264 [info]: i16 v, h, dc, p: 8% 7% 5% 80%
x264 [info]: i8 v, h, dc, ddl, ddr, vr, hd, vl, hu: 11% 8% 40% 6% 6% 6% 6% 7% 9%
x264 [info]: i4 v, h, dc, ddl, ddr, vr, hd, vl, hu: 13% 8% 5% 10% 15% 15% 13% 10% 11%
x264 [info]: i8c dc, h, v, p: 49% 23% 21% 6%
x264 [info]: Weighted P-Frames: Y:5.4% UV:3.1%
x264 [info]: ref P L0: 47.6% 10.4% 21.6% 10.0% 9.9% 0.4% 0.0%
x264 [info]: ref B L0: 81.9% 12.9% 4.2% 1.0%
x264 [info]: ref B L1: 95.1% 4.9%
x264 [info]: kb/s:9997.18

encoded 142152 frames, 18.29 fps, 9997.18 kb/s
*****************************************************

Общее
Уникальный идентификатор: 205842150779761234702053209158455896262 (0x9ADBC196592394D4BA877EA43007A8C6)
Полное имя: Last.Survivors.2021.1080p.BluRay.DD.5.1.x264-MegaPeer.mkv
Формат: Matroska
Версия формата: Version 4
Размер файла: 7, 61 Гбайт
Продолжительность: 1 ч. 38 м.
Общий поток: 11, 0 Мбит/сек
Название фильма: Последние выжившие / Last Survivors (2021) от [email protected]
Дата кодирования: UTC 2022-09-21 04:17:18
Программа кодирования: mkvmerge v15.0.0 ('Duel with the Devil') 64-bit
Библиотека кодирования: libebml v1.3.5 + libmatroska v1.4.5
Обложка: Yes
Attachments: cover.jpg

Видео
Идентификатор: 1
Формат: AVC
Формат/Информация: Advanced Video Codec
Профиль формата: [email protected]
Настройки формата: CABAC / 5 Ref Frames
Параметр CABAC формата: Да
Параметр RefFrames формата: 5 кадров
Идентификатор кодека: V_MPEG4/ISO/AVC
Продолжительность: 1 ч. 38 м.
Битрейт: 10 000 Кбит/сек
Ширина: 1 920 пикселей
Высота: 680 пикселей
Соотношение сторон: 2, 824
Режим частоты кадров: Постоянный
Частота кадров: 23, 976 кадра/сек
Цветовое пространство: YUV
Субдискретизация насыщенности: 4:2:0
Битовая глубина: 8 бит
Тип развёртки: Прогрессивная
Бит/(Пиксели*Кадры): 0.319
Размер потока: 6, 90 Гбайт (91%)
Заголовок: [email protected]
Библиотека кодирования: x264 core 161 r3018 db0d417
Настройки программы: cabac=1 / ref=5 / deblock=1:-3:-3 / analyse=0x3:0x113 / me=umh / subme=10 / psy=1 / psy_rd=1.00:0.00 / mixed_ref=1 / me_range=32 / chroma_me=1 / trellis=2 / 8x8dct=1 / cqm=0 / deadzone=21, 11 / fast_pskip=0 / chroma_qp_offset=-2 / threads=12 / lookahead_threads=2 / sliced_threads=0 / nr=0 / decimate=0 / interlaced=0 / bluray_compat=0 / constrained_intra=0 / bframes=8 / b_pyramid=2 / b_adapt=2 / b_bias=0 / direct=3 / weightb=1 / open_gop=0 / weightp=2 / keyint=240 / keyint_min=24 / scenecut=40 / intra_refresh=0 / rc_lookahead=40 / rc=2pass / mbtree=0 / bitrate=10000 / ratetol=1.0 / qcomp=0.60 / qpmin=0 / qpmax=69 / qpstep=4 / cplxblur=20.0 / qblur=0.5 / vbv_maxrate=50000 / vbv_bufsize=62500 / nal_hrd=none / filler=0 / ip_ratio=1.40 / pb_ratio=1.30 / aq=1:1.10
Язык: German
Default: Да
Forced: Нет

Аудио #1
Идентификатор: 2
Формат: AC-3
Формат/Информация: Audio Coding 3
Коммерческое название: Dolby Digital
Идентификатор кодека: A_AC3
Продолжительность: 1 ч. 38 м.
Вид битрейта: Постоянный
Битрейт: 384 Кбит/сек
Каналы: 6 каналов
Channel layout: L R C LFE Ls Rs
Частота: 48, 0 КГц
Частота кадров: 31, 250 кадров/сек (1536 SPF)
Метод сжатия: С потерями
Размер потока: 271 Мбайт (3%)
Заголовок: DUB | Zone Vision | iTunes
Язык: Russian
Service kind: Complete Main
Default: Да
Forced: Да

Аудио #2
Идентификатор: 3
Формат: AC-3
Формат/Информация: Audio Coding 3
Коммерческое название: Dolby Digital
Идентификатор кодека: A_AC3
Продолжительность: 1 ч. 38 м.
Вид битрейта: Постоянный
Битрейт: 640 Кбит/сек
Каналы: 6 каналов
Channel layout: L R C LFE Ls Rs
Частота: 48, 0 КГц
Частота кадров: 31, 250 кадров/сек (1536 SPF)
Метод сжатия: С потерями
Размер потока: 452 Мбайт (6%)
Язык: English
Service kind: Complete Main
Default: Нет
Forced: Нет

Текст
Идентификатор: 4
Формат: UTF-8
Идентификатор кодека: S_TEXT/UTF8
Идентификатор кодека/Информация: UTF-8 Plain Text
Продолжительность: 1 ч. 32 м.
Битрейт: 41 бит/сек
Count of elements: 968
Размер потока: 28, 3 Кбайт (0%)
Заголовок: Full
Язык: English
Default: Нет
Forced: Нет

Меню
00:00:00.000: en:Chapter 01
00:12:47.767: en:Chapter 02
00:24:07.446: en:Chapter 03
00:36:50.208: en:Chapter 04
00:49:55.993: en:Chapter 05
01:02:10.727: en:Chapter 06
01:13:58.434: en:Chapter 07
01:27:06.221: en:Chapter 08
01:34:23.658: en:Chapter 09




Скачать Последние выжившие через торрент https://i6-imageban-ru.translate.goog/out/2022/09/20/813caa5dfb8cf723ad709420dc9b61fe.jpg Скачать, смотреть онлайн Последние выжившие бесплантно в хорошем качестве Описание: Оградившись от всего мира, Трой и его сын Джейк живут в лесной глуши. Когда отец получает ранение, сын отправляется во внешний ... 9.3 10 7
Торрент: Зарегистрирован [2022-09-21 18:53] · скачан: 66 раз
Статус: √ проверено
Размер: 7.61 GB
Как cкачать? Как скачать Последние выжившие через торрент | UTorrent

% Раздел Тема Автор DL S | L
Фильмы (WEB-DL 720p, 1080p) [ 5.17 GB ] Последние выжившие / Last Survivors / SHTF | iTunes | 1080p bober100 Скачать
6 | 0
Фильмы 2021 [DVDrip, WEB-DLRip, HDrip] (DUB, MVO) [ 746 MB ] Последние выжившие / Last Survivors / SHTF | iTunes | BDRip bober100 Скачать
7 | 0
Фильмы 2021 [DVDrip, WEB-DLRip, HDrip] (DUB, MVO) [ 1.46 GB ] Последние выжившие / Last Survivors / SHTF | iTunes | BDRip bober100 Скачать
4 | 0
T Фильмы 2021 (Звук TS, Cam, VO, DVO) [ 1.95 GB ] Последние выжившие / Last Survivors | Pazl Voice | WEBRip-AVC Lithuania Скачать
2 | 0

28-11-2019 20:33  

Отключить вcю реклaмy на сайте

21-09-2022 21:06 Последние выжившие Скачать торрент  

что-то размер картинки какой-то покусанный



22-09-2022 13:37 Последние выжившие Скачать торрент  

хмм,запрещенные отношения с женщиной-что это такое?



    Дорогой пользователь! Огромная просьба, поблагодарите релизера, оцените раздачу и оставьте свои комментарий, если Вы скачали Последние выжившие через торрент бесплатно!!
    Комментировать посты могут только пользователи прошедшие не сложную регистрацию
    Показать сообщения:    


    Последние выжившие через торрент
    Скачать бесплатно Последние выжившие
    Последние выжившие скачать торрент
    Последние выжившие смотреть онлайн
    Cкачать фильм Последние выжившие бесплатно
    Последние выжившие скачать торрент в хорошем качестве
    Последние выжившие смотреть онлайн бесплатно в хорошем качестве
    Вы не можете начинать темы
    Вы не можете отвечать на сообщения
    Вы не можете редактировать свои сообщения
    Вы не можете удалять свои сообщения
    Вы не можете голосовать в опросах
    Вы не можете прикреплять файлы к сообщениям
    Вы можете скачивать файлы