Доктор Стрэндж

Лицензия

Добыча

MVO

Дом дракона

1 сезон

Тор

Лицензия

Мэверик

Лицензия

Там, где раки поют

MVO

Властелин колец

1 сезон

Ultimate

pack

Рекомендуем

30

Repack

ВАЖНО

ВАЖНО

Ghostwire

RePack

jed

RePack

nioh2

RePack

RDR2

RePack

NEED FOR SPEED™ PAYBACK

RePack

скачать торрент

Кинопоиск HD

Острые козырьки 6 сезон

6 сезон

FAR CRY 6

RePack

скачать торрент

Лицензия

скачать торрент

MVO

1

1 сезон

скачать торрент

1 сезон

скачать торрент

Лицензия

  

Костюм / The Outfit (Грэм Мур) [2022, Триллер, драма, криминал, BDRip 720p] DUB

Костюм через торрент pb.wtf

Раздают: 11 [ 1 KB/s ]
Размер: 6.16 GB | Добавлен: 10 д. назад | Торрент скачан:102 раза
Смотреть онлайн Костюм | Скачать   

22-09-2022 22:29 Костюм Скачать торрент  

Костюм
The Outfit

Год выпуска: 2022
Страна: Великобритания, США
Студия: FilmNation Entertainment, Focus Features, Scoop Productions (II), Unified Theory
Жанр: Триллер, драма, криминал
Продолжительность: 01:44:58
Перевод: Дублированный
Субтитры: Русские (Forced, full), английские

Режиссер: Грэм Мур

rating

В ролях: Марк Райлэнс, Зои Дойч, Джонни Флинн, Дилан О’Брайен, Никки Амука-Бёрд, Саймон Расселл Бил, Джон, Гамли-Мейсон, Стивен Нокс, Стив Чатфилд, Михал Форейтек

Описание: История гениального английского портного Леонарда, который жил и работал на лондонской улице Сэвил-Роу, известной на весь мир тем, что там работали лучшие портные. Но после личной трагедии Леонард переезжает в Чикаго, где открывает свое ателье в самом центре неблагополучного района. Его шикарные костюмы могут себе позволить только гангстеры, которые заправляют этим городом.

Качество: BDRip 720p
Формат: MKV

Видео: MPEG-4 AVC, 1280x640, 7376 Kbit/s, 23.976 fps
Аудио #01: 48 kHz, AC3, 5.1, 384 Kbps | Дублированный | RUS |
Аудио #02: 48 kHz, AC3, 5.1, 640 Kbps | Оригинал | ENG |
скриншот  скриншот  скриншот  скриншот  скриншот  скриншот  

General
Unique ID: 264407837878310476433061418648943203436 (0xC6EB18E561227E43C423F2A5887C146C)
Complete name: E:Video1The.Outfit.2022.BDRip.720p.seleZen.mkv
Format: Matroska
Format version: Version 4
File size: 6.16 GiB
Duration: 1 h 44 min
Overall bit rate: 8 401 kb/s
Movie name: The Outfit 2022 from seleZen
Encoded date: UTC 2022-09-22 20:01:33
Writing application: mkvmerge v59.0.0 ('Shining Star') 64-bit
Writing library: libebml v1.4.2 + libmatroska v1.6.4

Video
ID: 1
Format: AVC
Format/Info: Advanced Video Codec
Format profile: [email protected]
Format settings: CABAC / 10 Ref Frames
Format settings, CABAC: Yes
Format settings, Reference: 10 frames
Codec ID: V_MPEG4/ISO/AVC
Duration: 1 h 44 min
Bit rate: 7 376 kb/s
Width: 1 280 pixels
Height: 640 pixels
Display aspect ratio: 2.000
Frame rate mode: Constant
Frame rate: 23.976 (24000/1001) FPS
Color space: YUV
Chroma subsampling: 4:2:0
Bit depth: 8 bits
Scan type: Progressive
Bits/(Pixel*Frame): 0.376
Stream size: 5.41 GiB (88%)
Writing library: x264 core 164 r3085+55M seleZen t_mod_New [(8 & 10)[email protected] X86_64]
Encoding settings: cabac=1 / ref=10 / deblock=1:-2:-2 / analyse=0x3:0x133 / me=umh / subme=10 / psy=1 / fade_compensate=0.00 / psy_rd=1.02:0.02 / mixed_ref=1 / me_range=32 / chroma_me=1 / trellis=2 / 8x8dct=1 / cqm=0 / deadzone=21, 11 / fast_pskip=0 / chroma_qp_offset=-3 / threads=20 / lookahead_threads=3 / sliced_threads=0 / nr=0 / decimate=0 / interlaced=0 / bluray_compat=0 / constrained_intra=0 / fgo=0 / bframes=9 / b_pyramid=2 / b_adapt=2 / b_bias=0 / direct=3 / weightb=1 / open_gop=0 / weightp=2 / keyint=240 / keyint_min=23 / scenecut=40 / intra_refresh=0 / rc_lookahead=60 / rc=2pass / mbtree=0 / bitrate=7376 / ratetol=1.0 / qcomp=0.60 / qpmin=0:0:0 / qpmax=51:51:51 / qpstep=4 / cplxblur=20.0 / qblur=0.5 / vbv_maxrate=50000 / vbv_bufsize=62500 / nal_hrd=none / filler=0 / ip_ratio=1.40 / pb_ratio=1.30 / aq=3:0.80 / aq-sensitivity=10.00 / aq-factor=1.00:1.00:1.00 / aq2=0 / aq3=0
Language: English
Default: Yes
Forced: No

Audio #1
ID: 2
Format: AC-3
Format/Info: Audio Coding 3
Commercial name: Dolby Digital
Codec ID: A_AC3
Duration: 1 h 44 min
Bit rate mode: Constant
Bit rate: 384 kb/s
Channel(s): 6 channels
Channel layout: L R C LFE Ls Rs
Sampling rate: 48.0 kHz
Frame rate: 31.250 FPS (1536 SPF)
Compression mode: Lossy
Stream size: 288 MiB (5%)
Title: Dub
Language: Russian
Service kind: Complete Main
Default: Yes
Forced: Yes

Audio #2
ID: 3
Format: AC-3
Format/Info: Audio Coding 3
Commercial name: Dolby Digital
Codec ID: A_AC3
Duration: 1 h 44 min
Bit rate mode: Constant
Bit rate: 640 kb/s
Channel(s): 6 channels
Channel layout: L R C LFE Ls Rs
Sampling rate: 48.0 kHz
Frame rate: 31.250 FPS (1536 SPF)
Compression mode: Lossy
Stream size: 481 MiB (8%)
Title: Original
Language: English
Service kind: Complete Main
Default: No
Forced: No

Text #1
ID: 4
Format: UTF-8
Codec ID: S_TEXT/UTF8
Codec ID/Info: UTF-8 Plain Text
Duration: 1 h 21 min
Bit rate: 0 b/s
Frame rate: 0.001 FPS
Count of elements: 4
Stream size: 147 Bytes (0%)
Title: Forced
Language: Russian
Default: Yes
Forced: Yes

Text #2
ID: 5
Format: UTF-8
Codec ID: S_TEXT/UTF8
Codec ID/Info: UTF-8 Plain Text
Duration: 1 h 39 min
Bit rate: 91 b/s
Frame rate: 0.242 FPS
Count of elements: 1435
Stream size: 66.7 KiB (0%)
Title: Full
Language: Russian
Default: No
Forced: No

Text #3
ID: 6
Format: UTF-8
Codec ID: S_TEXT/UTF8
Codec ID/Info: UTF-8 Plain Text
Duration: 1 h 43 min
Bit rate: 56 b/s
Frame rate: 0.246 FPS
Count of elements: 1536
Stream size: 42.7 KiB (0%)
Title: Full
Language: English
Default: No
Forced: No

Menu
00:00:00.000: Chapter 01
00:05:45.928: Chapter 02
00:10:16.073: Chapter 03
00:15:10.659: Chapter 04
00:18:41.745: Chapter 05
00:20:57.130: Chapter 06
00:28:42.429: Chapter 07
00:32:40.583: Chapter 08
00:36:29.353: Chapter 09
00:40:48.988: Chapter 10
00:43:23.976: Chapter 11
00:50:55.886: Chapter 12
00:57:51.384: Chapter 13
01:04:17.270: Chapter 14
01:09:23.325: Chapter 15
01:14:58.410: Chapter 16
01:21:42.480: Chapter 17
01:27:56.980: Chapter 18
01:32:29.669: Chapter 19
01:39:29.338: Chapter 20




Скачать Костюм через торрент https://i120.fastpic.org/big/2022/0923/17/3f7836d60c59e21fb6b0b807ffcd1d17.jpg Скачать, смотреть онлайн Костюм бесплантно в хорошем качестве Описание: История гениального английского портного Леонарда, который жил и работал на лондонской улице Сэвил-Роу, известной на весь мир ... 10 10 5
Торрент: Зарегистрирован [2022-09-22 22:31] · скачан: 102 раз
Статус: √ проверено
Размер: 6.16 GB
Как cкачать? Как скачать Костюм через торрент | UTorrent

% Раздел Тема Автор DL S | L
Фильмы [HD 720p, 1080p] (Хороший звук DUB, MVO) [ 12.83 GB ] Костюм / The Outfit | DUB | 1080p bober100 Скачать
11 | 2
Фильмы 2022 [DVDrip, WEB-DLRip, HDrip] (DUB, MVO) [ 1.46 GB ] Костюм / The Outfit | DUB | BDRip bober100 Скачать
7 | 0
Фильмы 2022 [DVDrip, WEB-DLRip, HDrip] (DUB, MVO) [ 1.78 GB ] Костюм / The Outfit | DUB | BDRip-AVC bober100 Скачать
29 | 0
Ultra HD (UHD: 2K, 4K, 8K) [ 55.33 GB ] Костюм / The Outfit | DUB | 2160p bober100 Скачать
6 | 1
Фильмы 2022 [DVDrip, WEB-DLRip, HDrip] (DUB, MVO) [ 746 MB ] Костюм / The Outfit | DUB | BDRip bober100 Скачать
4 | 0
Фильмы (Blu-ray, BD-Remux, HDDVD) [ 29.67 GB ] Костюм / The Outfit | DUB | BD Remux 1080p bober100 Скачать
3 | 1
T Фильмы 2022 (Звук TS, Cam, VO, DVO) [ 2.09 GB ] Костюм / The Outfit | Pazl Voice | DLRip-AVC Lithuania Скачать
3 | 0

28-11-2019 20:33  

Отключить вcю реклaмy на сайте

25-09-2022 15:57 Костюм Скачать торрент  

интересный фильм.



28-09-2022 13:08 Костюм Скачать торрент  

фильм вообще не такой каким его ожидаешь увидеть.
Хороший фильм и качественный, понравился. А финал какой-то не очень.



    Дорогой пользователь! Огромная просьба, поблагодарите релизера, оцените раздачу и оставьте свои комментарий, если Вы скачали Костюм через торрент бесплатно!!
    Комментировать посты могут только пользователи прошедшие не сложную регистрацию
    Показать сообщения:    


    Костюм через торрент
    Скачать бесплатно Костюм
    Костюм скачать торрент
    Костюм смотреть онлайн
    Cкачать фильм Костюм бесплатно
    Костюм скачать торрент в хорошем качестве
    Костюм смотреть онлайн бесплатно в хорошем качестве
    Вы не можете начинать темы
    Вы не можете отвечать на сообщения
    Вы не можете редактировать свои сообщения
    Вы не можете удалять свои сообщения
    Вы не можете голосовать в опросах
    Вы не можете прикреплять файлы к сообщениям
    Вы можете скачивать файлы