Лицензия

MVO

1

1 сезон

Лицензия

Лицензия

13

MVO

1 сезон

Deluxe Edition

pack

Рекомендуем

30

Repack

ВАЖНО

ВАЖНО

Ghostwire

RePack

jed

RePack

fifa19

RePack

RDR2

RePack

NEED FOR SPEED™ PAYBACK

RePack

Кинопоиск HD

 Острые козырьки 6 сезон

6 сезон

FAR CRY 6

RePack

Лицензия

MVO

1

1 сезон

1 сезон

Лицензия

  

Под наблюдением / Прослушка / Wire Room (Мэтт Эскандари) [2022, Боевик, триллер, WEB-DL 1080p] DUB [Pride Production]

Под наблюдением через торрент pb.wtf

Раздают: 4 [ 714 KB/s ]
Размер: 5.38 GB | Добавлен: 2 д. 5 ч. назад | Торрент скачан:23 раза
Смотреть онлайн Под наблюдением | Скачать   

22-09-2022 23:05 Под наблюдением Скачать торрент  

Под наблюдением / Прослушка
Wire Room

Год выпуска: 2022
Страна: США
Студия: Emmett/Furla Films, Five Star Films, Grindstone Entertainment Group
Жанр: Боевик, триллер
Продолжительность: 01:36:33
Перевод: Дублированный | Pride Production
Субтитры: Aнглийские

Режиссер: Мэтт Эскандари

rating

В ролях: Брюс Уиллис, Кевин Диллон, Оливер Тревена, Тексас Бэттл, Адам Уэль Поттер, Джон Д. Хикман, Эмбер Таунсенд

Описание: Брюс Уиллис в роли агента национальной безопасности, работающего в высокотехнологичном командном центре, где следят за самыми опасными преступниками. Его главная цель — член картеля Эдди Флинн. Когда агент видит, как на Флинна нападают неизвестные убийцы, он нарушает протокол и вмешивается. Теперь его жизни грозит опасность.

Качество: WEB-DL 1080p
Формат: MKV

Видео: MPEG-4 AVC, 1920x956, 6696 Kbit/s, 23.976 fps
Аудио #01: 48 kHz, AC3, 5.1, 448 Kbps | Дублированный | Pride Production | RUS |
Аудио #02: 48 kHz, E-AC3, 5.1, 448 Kbps | Дублированный | Pride Production | RUS |
Аудио #03: 48 kHz, AC3, 5.1, 384 Kbps | Оригинал | ENG |
скриншот  скриншот  скриншот  скриншот  скриншот  скриншот  

General
Unique ID : 201727630045971911176709097275723846756 (0x97C3540D89D99887E54AF65361D79464)
Complete name : E:Video1Wire.Room.2022.WEB-DL.1080p.seleZen.mkv
Format : Matroska
Format version : Version 4
File size : 5.38 GiB
Duration : 1 h 36 min
Overall bit rate : 7 972 kb/s
Movie name : Wire Room 2022 from seleZen
Encoded date : UTC 2022-09-22 22:25:53
Writing application : mkvmerge v59.0.0 ('Shining Star') 64-bit
Writing library : libebml v1.4.2 + libmatroska v1.6.4

Video
ID : 1
Format : AVC
Format/Info : Advanced Video Codec
Format profile : [email protected]
Format settings : CABAC / 4 Ref Frames
Format settings, CABAC : Yes
Format settings, Reference : 4 frames
Codec ID : V_MPEG4/ISO/AVC
Duration : 1 h 36 min
Bit rate : 6 696 kb/s
Width : 1 920 pixels
Height : 956 pixels
Display aspect ratio : 2.008
Frame rate mode : Constant
Frame rate : 23.976 (24000/1001) FPS
Color space : YUV
Chroma subsampling : 4:2:0
Bit depth : 8 bits
Scan type : Progressive
Bits/(Pixel*Frame) : 0.152
Stream size : 4.52 GiB (84%)
Language : English
Default : Yes
Forced : No
Color range : Limited
Color primaries : BT.709
Transfer characteristics : BT.709
Matrix coefficients : BT.709

Audio #1
ID : 2
Format : AC-3
Format/Info : Audio Coding 3
Commercial name : Dolby Digital
Codec ID : A_AC3
Duration : 1 h 36 min
Bit rate mode : Constant
Bit rate : 448 kb/s
Channel(s) : 6 channels
Channel layout : L R C LFE Ls Rs
Sampling rate : 48.0 kHz
Frame rate : 31.250 FPS (1536 SPF)
Compression mode : Lossy
Stream size : 310 MiB (6%)
Title : Dub
Language : Russian
Service kind : Complete Main
Default : Yes
Forced : Yes

Audio #2
ID : 3
Format : E-AC-3
Format/Info : Enhanced AC-3
Commercial name : Dolby Digital Plus
Codec ID : A_EAC3
Duration : 1 h 36 min
Bit rate mode : Constant
Bit rate : 448 kb/s
Channel(s) : 6 channels
Channel layout : L R C LFE Ls Rs
Sampling rate : 48.0 kHz
Frame rate : 31.250 FPS (1536 SPF)
Compression mode : Lossy
Stream size : 310 MiB (6%)
Title : Dub
Language : Russian
Service kind : Complete Main
Default : No
Forced : No

Audio #3
ID : 4
Format : AC-3
Format/Info : Audio Coding 3
Commercial name : Dolby Digital
Codec ID : A_AC3
Duration : 1 h 36 min
Bit rate mode : Constant
Bit rate : 384 kb/s
Channel(s) : 6 channels
Channel layout : L R C LFE Ls Rs
Sampling rate : 48.0 kHz
Frame rate : 31.250 FPS (1536 SPF)
Compression mode : Lossy
Stream size : 265 MiB (5%)
Title : Original
Language : English
Service kind : Complete Main
Default : No
Forced : No

Text #1
ID : 5
Format : UTF-8
Codec ID : S_TEXT/UTF8
Codec ID/Info : UTF-8 Plain Text
Duration : 1 h 30 min
Bit rate : 64 b/s
Frame rate : 0.229 FPS
Count of elements : 1242
Stream size : 42.4 KiB (0%)
Title : Full
Language : English
Default : No
Forced : No

Text #2
ID : 6
Format : UTF-8
Codec ID : S_TEXT/UTF8
Codec ID/Info : UTF-8 Plain Text
Duration : 1 h 32 min
Bit rate : 67 b/s
Frame rate : 0.251 FPS
Count of elements : 1386
Stream size : 45.5 KiB (0%)
Title : SDH
Language : English
Default : No
Forced : No

Menu
00:00:00.000 : Chapter 01
00:03:12.067 : Chapter 02
00:17:26.546 : Chapter 03
00:31:32.267 : Chapter 04
00:45:21.680 : Chapter 05
00:59:23.355 : Chapter 06
01:13:15.729 : Chapter 07
01:22:11.222 : Chapter 08
01:32:42.562 : Chapter 09




Скачать Под наблюдением через торрент https://i120.fastpic.org/big/2022/0923/02/f439155d05c211f548cde983e679f702.jpg Скачать, смотреть онлайн Под наблюдением бесплантно в хорошем качестве Описание: Брюс Уиллис в роли агента национальной безопасности, работающего в высокотехнологичном командном центре, где следят за самыми ... 10 10 3
Торрент: Зарегистрирован [2022-09-22 23:05] · скачан: 23 раз
Статус: √ проверено
Размер: 5.38 GB
Как cкачать? Как скачать Под наблюдением через торрент | UTorrent

28-11-2019 20:33  

Отключить вcю реклaмy на сайте

23-09-2022 13:59 Под наблюдением Скачать торрент  

а 3 скрин хорош)



    Дорогой пользователь! Огромная просьба, поблагодарите релизера, оцените раздачу и оставьте свои комментарий, если Вы скачали Под наблюдением через торрент бесплатно!!
    Комментировать посты могут только пользователи прошедшие не сложную регистрацию
    Показать сообщения:    


    Под наблюдением через торрент
    Скачать бесплатно Под наблюдением
    Под наблюдением скачать торрент
    Под наблюдением смотреть онлайн
    Cкачать фильм Под наблюдением бесплатно
    Под наблюдением скачать торрент в хорошем качестве
    Под наблюдением смотреть онлайн бесплатно в хорошем качестве
    Вы не можете начинать темы
    Вы не можете отвечать на сообщения
    Вы не можете редактировать свои сообщения
    Вы не можете удалять свои сообщения
    Вы не можете голосовать в опросах
    Вы не можете прикреплять файлы к сообщениям
    Вы можете скачивать файлы