Всегда рабочее зеркало без VPN и Proxy просто перед .vidak.icu напиши любое слово или цифру, Пример http://cfil.vidak.icu

Лицензия

MVO

1 сезон

1

1 сезон

iTunes

1 сезон

13

1 сезон

Deluxe

pack

Рекомендуем

Repack

30

ВАЖНО

RePack

MK11

RePack

jed

RePack

fifa19

RePack

RDR2

RePack

NEED FOR SPEED™ PAYBACK

Кинопоиск HD

6 сезон

 Острые козырьки 6 сезон

Все сериалы

все сериалы на PB.wtf

RePack

FAR CRY 5
  
Magnet ссылка

Санктум / Sanctum (Алистер Грирсон) [2011 г., боевик, триллер, драма, приключения,​ DVDRip [H.264], лицензия] pb.wtf

Санктум через торрент pb.wtf

Размер: 2.05 GB | Добавлен: 11 лет назад | Торрент скачан:768 раз
Смотреть онлайн Санктум | Скачать    Ребята, помогите собрать деньги на оплату серверов!!!

25-02-2011 05:02 Санктум Скачать торрент  

Санктум / Sanctum

Русское название: Санктум
Оригинальное название: Sanctum
Год выпуска: 2011
Производство: США / Австралия, Relativity Media
Жанр: Боевик, Триллер, Драма, Приключения
Продолжительность: 01:44:22
Перевод: Дублированный [Лицензия]


Дата мировой премьеры: 3 февраля 2011
Дата российской премьеры: 3 февраля 2011, «Top Film Distribution»
Дата выхода DVD релиза: 3 марта 2011, «New Dream media», «Новый Диск»
Бюджет: $30 000 000
Сборы в мире: $48 577 775


Режиссер: Алистер Грирсон
Продюсер: Бен Браунинг, Джеймс Кэмерон, Райан Кэвэна
Актеры: Ричард Роксбург, Йоан Гриффит, Риз Уэйкфилд, Элис Паркинсон, Дэниэл Уилли, Кристофер Бэйкер, Элисон Крэтчли, Крамер Кэйн, Эндрю Хансен, Джон Гарвин


Описание фильма:
Группа дайверов предпринимает очень рискованную экспедицию в самую большую систему пещер на Земле — невероятно красивую и почти недоступную. Неожиданный тропический шторм вынуждает их спуститься глубоко в пещеры. Единственное спасение для исследователей — найти неизвестный второй выход к морю, преодолевая неистовую стихию бушующих вод, коварные ловушки подземелий и смертельный ужас…



Качество видео: DVDRip
Формат: MKV
Видеокодек: AVC / H.264
Битрейт видео: ~2040 Кбит/сек
Видео: AVC, 716x546 (1.864), 25.000 fps, 2 040 Kbps (0.204 bit/pixel)
Аудио №1: AC-3, 48.0 KHz, 6 ch, 384 Kbps, CBR - Русский Дублированный
Аудио №2: AC-3, 48.0 KHz, 6 ch, 384 Kbps, CBR - Украинский Дублированный


Сделано из DVD9! Украинская дорожка оставлена!
«Единственное спасение - глубина»

скриншот   скриншот   скриншот   скриншот   скриншот  

скриншот   скриншот   скриншот   скриншот  
- В фильме используется такая же техника съёмки, как и в Аватаре.
- Фильм основан на реальном событии, произошедшем с Эндрю Уайтом - соавтором сценария. Однажды Эндрю и еще 14 человек занимались дайвингом в пещерах, в это время вход в их пещеру обрушился. В течение двух дней Эндрю и другие дайверы искали другой выход.
- В переводе с латыни sanctum — святой, а с английского — святилище.

Общее
Уникальный идентификатор : 314657065904628770012834026057619163256 (0xECB8BF1D7FD939A380F800A1BBBF4878)
Полное имя : E:\Sanctum_2011_DVDRip.mkv
Формат : Matroska
Размер файла : 2,05 Гбайт
Продолжительность : 1 ч. 44 м.
Общий поток : 2816 Кбит/сек
Программа кодирования : HandBrake 0.9.5
Библиотека кодирования : libmkv 0.6.4.1

Видео
Идентификатор : 1
Формат : AVC
Формат/Информация : Advanced Video Codec
Профиль формата : [email protected]
Параметр CABAC формата : Да
Параметр ReFrames формата : 4 кадры
Параметры GOP формата : M=3, N=16
Идентификатор кодека : V_MPEG4/ISO/AVC
Продолжительность : 1 ч. 44 м.
Битрейт : 2040 Кбит/сек
Ширина : 716 пикс.
Высота : 546 пикс.
Соотношение сторон : 1,864
Соотношение сторон в оригинале : 1,865
Режим частоты кадров : Переменный
Частота кадров : 25,000 кадр/сек
Цветовое пространство : YUV
Подвыборка цветности : 4:2:0
Битовая глубина : 8 бит
Тип развёртки : Прогрессивная
Бит/(Пиксели*Кадры) : 0.209
Размер потока : 1,45 Гбайт (71%)
Библиотека кодирования : x264 core 112
Настройки программы : cabac=1 / ref=2 / deblock=1:0:0 / analyse=0x1:0x111 / me=hex / subme=6 / psy=1 / psy_rd=1.00:0.00 / mixed_ref=0 / me_range=16 / chroma_me=1 / trellis=0 / 8x8dct=0 / cqm=0 / deadzone=21,11 / fast_pskip=1 / chroma_qp_offset=-2 / threads=12 / sliced_threads=0 / nr=0 / decimate=1 / interlaced=0 / constrained_intra=0 / bframes=2 / b_pyramid=2 / b_adapt=1 / b_bias=0 / direct=1 / weightb=0 / open_gop=0 / weightp=2 / keyint=250 / keyint_min=24 / scenecut=40 / intra_refresh=0 / rc_lookahead=40 / rc=2pass / mbtree=1 / bitrate=2040 / ratetol=1.0 / qcomp=0.60 / qpmin=3 / qpmax=51 / qpstep=4 / cplxblur=20.0 / qblur=0.5 / ip_ratio=1.40 / aq=1:1.00
Язык : English
Основные цвета : BT.601-6 525, BT.1358 525, BT.1700 NTSC, SMPTE 170M
Характеристики трансфера : BT.709-5, BT.1361
Коэффициенты матрицы : BT.601-6 525, BT.1358 525, BT.1700 NTSC, SMPTE 170M

Аудио #1
Идентификатор : 2
Формат : AC-3
Формат/Информация : Audio Coding 3
Расширение режима : CM (complete main)
Идентификатор кодека : A_AC3
Продолжительность : 1 ч. 44 м.
Вид битрейта : Постоянный
Битрейт : 384 Кбит/сек
Канал(ы) : 6 канала(ов)
Расположение каналов : Front: L C R, Side: L R, LFE
Частота : 48,0 КГц
Битовая глубина : 16 бит
Метод сжатия : С потерями
Размер потока : 287 Мбайт (14%)
Язык : Russian

Аудио #2
Идентификатор : 3
Формат : AC-3
Формат/Информация : Audio Coding 3
Расширение режима : CM (complete main)
Идентификатор кодека : A_AC3
Продолжительность : 1 ч. 44 м.
Вид битрейта : Постоянный
Битрейт : 384 Кбит/сек
Канал(ы) : 6 канала(ов)
Расположение каналов : Front: L C R, Side: L R, LFE
Частота : 48,0 КГц
Битовая глубина : 16 бит
Метод сжатия : С потерями
Размер потока : 287 Мбайт (14%)
Язык : Ukrainian

Меню
00:00:00.000 : Chapter 1
00:10:00.120 : Chapter 2
00:21:00.040 : Chapter 3
00:29:59.920 : Chapter 4
00:39:59.960 : Chapter 5
00:49:59.960 : Chapter 6
01:14:59.920 : Chapter 7
01:39:21.200 : Chapter 8
01:44:21.720 : Chapter 9
pb.wtf



Скачать Санктум через торрент http://piratbit.in.ua/img1/2166/3615280.png Скачать, смотреть онлайн Санктум бесплантно в хорошем качестве Описание фильма: Группа дайверов предпринимает очень рискованную экспедицию в самую большую систему пещер на Земле — невероятно красивую и ... 4.7 10 25
Info! Золотая раздача, скачанное не засчитывается.
Торрент: Зарегистрирован [2011-02-25 05:02] · скачан: 768 раз
Статус: √ проверено
Размер: 2.05 GB
Как cкачать? Как скачать Санктум через торрент | UTorrent

% Раздел Тема Автор DL S | L
3D Фильмы [ 25.84 GB ] Санктум в 3Д / Sanctum 3D [2011 BDRip 1080p] OverUnder / Вертикальная стереопара serega768 Скачать
1 | 0
Фильмы 2011 [ 2.19 GB ] Санктум / Sanctum [2011 DVDRip] DUB Homeless Скачать
1 | 0
Фильмы [HD 720p, 1080p] (Хороший звук DUB, MVO) [ 6.72 GB ] Санктум / Sanctum [2011 BDRip 1080p HEVC ()] Мичман37 Скачать
1 | 0
Фильмы с авторской озвучкой [ 1.46 GB ] Санктум / Sanctum [2011 BDRip] [AVO] killermax2013 Скачать
1 | 0
Фильмы [HD 720p, 1080p] (Хороший звук DUB, MVO) [ 14.3 GB ] Санктум / Sanctum [2011 ​ BDRip 1080p] diletant Скачать
1 | 0
3D Фильмы [ 12.22 GB ] Санктум / Sanctum [2011 BDRip DUB ] / Вертикальная анаморфная стереопара serega768 Скачать
1 | 0
Фильмы 2011 [ 2.05 GB ] Санктум / Sanctum [2011 HDRip лицензия] kombs Скачать
1 | 0


Последний раз редактировалось: Notturno (2011-02-25 10:52), всего редактировалось 6 раз(а)

28-11-2019 20:33  

Отключить вcю реклaмy на сайте

25-02-2011 06:45 Санктум Скачать торрент  

Приятного просмотра)) pb.wtf





Последний раз редактировалось: Notturno (2011-02-26 16:44), всего редактировалось 2 раз(а)

25-02-2011 07:54 Санктум Скачать торрент  

Разрешение скриншотов не соответствует разрешению видео.pb.wtf



25-02-2011 08:36 Санктум Скачать торрент  

А через какую программу ты сделал такую коробку??pb.wtf



25-02-2011 08:58 Санктум Скачать торрент  

Homeless писал(а):

Разрешение скриншотов не соответствует разрешению видео.

Поправил)pb.wtf



25-02-2011 09:14 Санктум Скачать торрент  

Исправьте скриншоты, они должны соответствовать разрешению вашего видео.
В название темы укажите (режиссёра)[Год,Жанр,Качество]

-->Как сделать скриншот --

Исправите пишите мне в ЛСpb.wtf



11-03-2011 17:44 Санктум Скачать торрент  

спасибо.окpb.wtf



11-03-2011 20:55 Санктум Скачать торрент  

Спасибо :good2:pb.wtf



12-03-2011 16:42 Санктум Скачать торрент  

Смотрела фильм в кинотеатре. Мне понравилось. Советую.pb.wtf



    Дорогой пользователь! Огромная просьба, поблагодарите релизера, оцените раздачу и оставьте свои комментарий, если Вы скачали Санктум через торрент бесплатно!
    Комментировать посты могут только пользователи прошедшие не сложную регистрацию
    Показать сообщения:    

    Санктум через торрент
    Скачать бесплатно Санктум
    Санктум скачать торрент
    Санктум смотреть онлайн
    Cкачать фильм Санктум бесплатно
    Санктум скачать торрент в хорошем качестве
    Санктум смотреть онлайн бесплатно в хорошем качестве


    Вы не можете начинать темы
    Вы не можете отвечать на сообщения
    Вы не можете редактировать свои сообщения
    Вы не можете удалять свои сообщения
    Вы не можете голосовать в опросах
    Вы не можете прикреплять файлы к сообщениям
    Вы можете скачивать файлы