Доктор Стрэндж

Лицензия

Добыча

Дубляж

Дом дракона

1 сезон

Тор

Дубляж

В эфире

Дубляж

Там, где раки поют

MVO

Властелин колец

1 сезон

Ultimate

pack

Рекомендуем

30

Пиратка

ВАЖНО

ВАЖНО

Ghostwire

Пиратка

jed

RePack

nioh2

RePack

RDR2

RePack

NEED FOR SPEED™ PAYBACK

RePack

скачать торрент

Кинопоиск HD

Острые козырьки 6 сезон

6 сезон

FAR CRY 6

RePack

скачать торрент

Лицензия

скачать торрент

MVO

1

1 сезон

скачать торрент

1 сезон

скачать торрент

Лицензия

  

Национальная безопасность / National Security (Дэннис Дуган) [2003, Комедия, боевик, WEB-DLRip - HEVC 1080p 10 bit 60 FPS, Дубляж]

Национальная безопасность через торрент pb.wtf

Раздают: 3 [ 0 KB/s ]
Размер: 2.58 GB | Добавлен: 2 мес. 3 д. назад | Торрент скачан:49 раз
Смотреть онлайн | Скачать   

23-09-2022 08:15 Национальная безопасность Скачать торрент  

National Security
«Даже неудачникам выпадает шанс спасти мир»
Информация о фильме:
Название: Национальная безопасность
Оригинальное название: National Security
Год выхода: 2003
Жанр: боевик, триллер, комедия, криминал
Режиссер: Деннис Дуган
В ролях: Мартин Лоуренс, Стив Зан, Колм Фиор, Билл Дьюк, Эрик Робертс, Тимоти Басфилд, Робин Ли, Мэтт МакКой, Бретт Каллен, Клио Кинг
Описание: Хэнк Рафферти — бывший полицейский, который пытается найти убийц своего напарника. Волею случая ему приходится сотрудничать с Эрлом Монтгомери, из-за которого он несправедливо попал в тюрьму на полгода и потерял работу.


Страна: США
Студия: Columbia Pictures
Продолжительность: 01:28:24
Перевод: Дублированый | Невафильм
Субтитры: русские |
Навигация по главам: есть
Информация о файле:
Качество: WEB-DLRip - HEVC 1080p Rip by DD2D3
Формат: MKV
Видео: V_MPEGH/ISO/HEVC; 1920x1080 (16:9); 3641 Kbps; 60 fps; 0,029 bpp
Аудио: русский; AC3; 448 Kbps; CBR; 6 ch ||
Доп. информация: Open MaTTe

Общее
Уникальный идентификатор : 188798415547247447215581708180156752732 (0x8E09408FE2E53502B7CC84F71E8AA35C)
Полное имя : E:\National Security (2003) [Open Matte] WEB-DLRip - HEVC 1080p 10 bit 60 FPS.mkv
Формат : Matroska
Версия формата : Version 2
Размер файла : 2,58 Гбайт
Продолжительность : 1 ч. 28 м.
Общий поток : 4 172 Кбит/сек
Название фильма : Rip by from DD2D3
Дата кодирования : UTC 2022-09-23 07:39:13
Программа кодирования : mkvmerge v7.8.0 ('River Man') 32bit built on Apr 3 2015 12:11:22
Библиотека кодирования : libebml v1.3.1 + libmatroska v1.4.2
Attachments : poster

Видео
Идентификатор : 1
Формат : HEVC
Формат/Информация : High Efficiency Video Coding
Профиль формата : Main [email protected]@Main
Идентификатор кодека : V_MPEGH/ISO/HEVC
Продолжительность : 1 ч. 28 м.
Битрейт : 3 641 Кбит/сек
Ширина : 1 920 пикселей
Высота : 1 080 пикселей
Соотношение сторон : 16:9
Режим частоты кадров : Постоянный
Частота кадров : 60,000 кадров/сек
Цветовое пространство : YUV
Субдискретизация насыщенности : 4:2:0
Битовая глубина : 10 бит
Бит/(Пиксели*Кадры) : 0.029
Размер потока : 2,25 Гбайт (87%)
Библиотека кодирования : x265 3.5+20-17839cc0d:[Windows][GCC 11.2.0][64 bit] 10bit
Настройки программы : cpuid=1111039 / frame-threads=2 / numa-pools=4 / wpp / no-pmode / no-pme / no-psnr / no-ssim / log-level=2 / input-csp=1 / input-res=1920x1080 / interlace=0 / total-frames=318251 / level-idc=41 / high-tier=1 / uhd-bd=0 / ref=5 / no-allow-non-conformance / no-repeat-headers / annexb / no-aud / no-eob / no-eos / no-hrd / info / hash=0 / no-temporal-layers / open-gop / min-keyint=5 / keyint=240 / gop-lookahead=0 / bframes=4 / b-adapt=2 / b-pyramid / bframe-bias=0 / rc-lookahead=20 / lookahead-slices=6 / scenecut=40 / no-hist-scenecut / radl=0 / no-splice / no-intra-refresh / ctu=64 / min-cu-size=8 / no-rect / no-amp / max-tu-size=8 / tu-inter-depth=1 / tu-intra-depth=1 / limit-tu=0 / rdoq-level=0 / dynamic-rd=0.00 / no-ssim-rd / signhide / no-tskip / nr-intra=0 / nr-inter=0 / no-constrained-intra / strong-intra-smoothing / max-merge=3 / limit-refs=1 / no-limit-modes / me=1 / subme=5 / merange=57 / temporal-mvp / no-frame-dup / no-hme / weightp / no-weightb / no-analyze-src-pics / deblock=0:0 / sao / no-sao-non-deblock / rd=3 / selective-sao=4 / early-skip / rskip / no-fast-intra / no-tskip-fast / no-cu-lossless / b-intra / no-splitrd-skip / rdpenalty=0 / psy-rd=2.00 / psy-rdoq=0.00 / no-rd-refine / no-lossless / cbqpoffs=-2 / crqpoffs=-2 / rc=abr / bitrate=3750 / qcomp=0.70 / qpstep=4 / stats-write=0 / stats-read=0 / ipratio=1.38 / pbratio=1.28 / aq-mode=2 / aq-strength=1.00 / cutree / zone-count=0 / no-strict-cbr / qg-size=32 / no-rc-grain / qpmax=69 / qpmin=0 / no-const-vbv / sar=1 / overscan=0 / videoformat=5 / range=0 / colorprim=1 / transfer=1 / colormatrix=1 / chromaloc=0 / display-window=0 / cll=0,0 / min-luma=0 / max-luma=1023 / log2-max-poc-lsb=8 / vui-timing-info / vui-hrd-info / slices=1 / no-opt-qp-pps / no-opt-ref-list-length-pps / no-multi-pass-opt-rps / scenecut-bias=0.05 / hist-threshold=0.03 / no-opt-cu-delta-qp / no-aq-motion / no-hdr10 / no-hdr10-opt / no-dhdr10-opt / no-idr-recovery-sei / analysis-reuse-level=0 / analysis-save-reuse-level=0 / analysis-load-reuse-level=0 / scale-factor=0 / refine-intra=0 / refine-inter=0 / refine-mv=1 / refine-ctu-distortion=0 / no-limit-sao / ctu-info=0 / no-lowpass-dct / refine-analysis-type=0 / copy-pic=1 / max-ausize-factor=1.0 / no-dynamic-refine / no-single-sei / no-hevc-aq / no-svt / no-field / qp-adaptation-range=1.00 / scenecut-aware-qp=0conformance-window-offsets / right=0 / bottom=0 / decoder-max-rate=0 / no-vbv-live-multi-pass
Default : Да
Forced : Нет
Цветовой диапазон : Limited
Основные цвета : BT.709
Характеристики трансфера : BT.709
Коэффициенты матрицы : BT.709

Аудио
Идентификатор : 2
Формат : AC-3
Формат/Информация : Audio Coding 3
Коммерческое название : Dolby Digital
Идентификатор кодека : A_AC3
Продолжительность : 1 ч. 28 м.
Вид битрейта : Постоянный
Битрейт : 448 Кбит/сек
Каналы : 6 каналов
Channel layout : L R C LFE Ls Rs
Частота : 48,0 КГц
Частота кадров : 31,250 кадров/сек (1536 SPF)
Метод сжатия : С потерями
Размер потока : 283 Мбайт (11%)
Заголовок : Дубляж Невафильм
Язык : Russian
Service kind : Complete Main
Default : Да
Forced : Нет

Текст
Идентификатор : 3
Формат : UTF-8
Идентификатор кодека : S_TEXT/UTF8
Идентификатор кодека/Информация : UTF-8 Plain Text
Заголовок : Rus
Язык : Russian
Default : Нет
Forced : Нет

Меню
00:00:00.000 : en:Chapter 1
00:05:13.229 : en:Chapter 2
00:10:40.222 : en:Chapter 3
00:14:48.470 : en:Chapter 4
00:19:17.656 : en:Chapter 5
00:25:22.103 : en:Chapter 6
00:30:30.954 : en:Chapter 7
00:38:21.799 : en:Chapter 8
00:42:06.106 : en:Chapter 9
00:46:42.883 : en:Chapter 10
00:52:32.649 : en:Chapter 11
00:58:30.840 : en:Chapter 12
01:04:38.541 : en:Chapter 13
01:08:49.291 : en:Chapter 14
01:14:16.535 : en:Chapter 15
01:21:11.950 : en:Chapter 16




Скачать Национальная безопасность через торрент https://st-kp-yandex-net.translate.goog/images/film_iphone/iphone360_5325.jpg Скачать, смотреть онлайн Национальная безопасность бесплантно в хорошем качестве Описание: Хэнк Рафферти — бывший полицейский, который пытается найти убийц своего напарника. Волею случая ему приходится сотрудничать с ... 10 10 5
Торрент: Зарегистрирован [2022-09-23 08:15] · скачан: 49 раз
Статус: √ проверено
Размер: 2.58 GB
Как cкачать? Как скачать Национальная безопасность через торрент | UTorrent

% Раздел Тема Автор DL S | L
Фильмы 2001-2005 [ 2.18 GB ] Национальная безопасность / National Security | DUB | BDRip killermax2013 Скачать
1 | 0
Фильмы 2001-2005 [ 702 MB ] Национальная безопасность / National Security | | BDRip Andruuha Скачать
1 | 0

28-11-2019 20:33  


Отключить вcю реклaмy на сайте, в т.ч. и в плеере онлайн просмотра!

    Дорогой пользователь! Огромная просьба, поблагодарите релизера, оцените раздачу и оставьте свои комментарий, если Вы скачали Национальная безопасность через торрент бесплатно!!
    Комментировать посты могут только пользователи прошедшие не сложную регистрацию
    Показать сообщения:    


    Национальная безопасность через торрент
    Скачать бесплатно Национальная безопасность
    Национальная безопасность скачать торрент
    Национальная безопасность смотреть онлайн
    Cкачать фильм Национальная безопасность бесплатно
    Национальная безопасность скачать торрент в хорошем качестве
    Национальная безопасность смотреть онлайн бесплатно в хорошем качестве
    Вы не можете начинать темы
    Вы не можете отвечать на сообщения
    Вы не можете редактировать свои сообщения
    Вы не можете удалять свои сообщения
    Вы не можете голосовать в опросах
    Вы не можете прикреплять файлы к сообщениям
    Вы можете скачивать файлы
    Национальная безопасность / National Security [2003, Комедия, боевик, WEB-DLRip - HEVC 1080p 10 bit 60 FPS, Дубляж] смотреть онлайн, скачать торрент picoco.icu