Доктор Стрэндж

Лицензия

Добыча

Дубляж

Уэнсдэй

1 сезон

Тор

Дубляж

В эфире

Дубляж

Там, где раки поют

MVO

Властелин колец

1 сезон

Deluxe

pack

Рекомендуем

30

Пиратка

ВАЖНО

ВАЖНО

Ghostwire

Пиратка

jed

RePack

nioh2

RePack

RDR2

RePack

NEED FOR SPEED™ PAYBACK

RePack

скачать торрент

Кинопоиск HD

Острые козырьки 6 сезон

6 сезон

FAR CRY 6

RePack

скачать торрент

Лицензия

скачать торрент

MVO

1

1 сезон

скачать торрент

1 сезон

скачать торрент

Лицензия

  

Три тысячи лет желаний / Three Thousand Years of Longing (Джордж Миллер) [2022, фэнтези, драма, мелодрама, WEB-DLRip-AVC] MVO [Jaskier, TVShows] от ExKinoRay

Три тысячи лет желаний через торрент pb.wtf

Раздают: 7 [ 0 KB/s ]
Размер: 2.51 GB | Добавлен: 2 мес. 13 д. назад | Торрент скачан:236 раз
Смотреть онлайн | Скачать   

24-09-2022 07:38 Три тысячи лет желаний Скачать торрент  


Три тысячи лет желаний / Three Thousand Years of Longing
Информация Описание:
Название: Три тысячи лет желаний
Оригинальное название: Three Thousand Years of Longing
Год выхода: 2022
Жанр: фэнтези, драма, мелодрама
Режиссер: Джордж Миллер
В ролях: Тильда Суинтон, Идрис Эльба, Пиа Тандерболт, Берк Озтюрк, Энтони Муассе, Алила Браун, Сэйдж Макконнелл, Абель Бонд, Агани Гечмез, Аянту Усман

Описание: Вот уже три тысячи лет перед глазами Джинна проносятся эпохи, целые цивилизации и погубленные страстями династии. Хозяева его сосуда сменялись, но так и не успевали освободить Джинна. Наконец, в наши дни его судьба оказывается в руках Алетейи — выдающейся ученой в области литературы. Однако она знает, чем обычно заканчиваются истории про джиннов, а потому не торопится загадывать свои три желания. Это невероятное знакомство позволит им обоим посмотреть на мир совершенно по-новому и подарит обоим куда большее, чем они могли пожелать.

rating h

Страна: Австралия, США
Студия: CAA Media Finance, Elevate Production Finance, FilmNation Entertainment, Kennedy Miller Mitchell, Kennedy Miller Productions, Metro-Goldwyn-Mayer (MGM)
Продолжительность: 01:48:21
Перевод: Профессиональный (многоголосый, закадровый) - Jaskier, TVShows



Информация о файле:
Кодек: AVC
Формат: MKV
Качество: WEB-DLRip-AVC
Видео: MPEG-4 AVC, 1024x426, 23.976 fps, 2100 kb/s
Аудио RU: AC3, 6 ch, 48 kHz, 384 kbps | Jaskier, TVShows
Аудио EN: AC3, 6 ch, 48 kHz, 448 kbps
Субтитры: Русские (Full / feofanio), английские (Forced hardsub, Full, SDH)



General
Unique ID : 206147899498792147236233624077865288038 (0x9B16A429BA7AE009E7196EFBBA338166)
Complete name : D:uTorrentРипы wolf1245Three Thousand Years of Longing.2022.MVO.Jaskier.TVShows.x264.WEB-DLRip-AVC.[wolf1245.ExKinoRay].mkv
Format : Matroska
Format version : Version 4
File size : 2.51 GiB
Duration : 1 h 48 min
Overall bit rate : 3 315 kb/s
Movie name : Three Thousand Years of Longing.2022.MVO.Jaskier.TVShows.x264.WEB-DLRip-AVC.[wolf1245.ExKinoRay]
Encoded date : UTC 2022-09-20 16:56:58
Writing application : mkvmerge v70.0.0 ('Caught A Lite Sneeze') 64-bit
Writing library : libebml v1.4.2 + libmatroska v1.6.4
Video
ID : 1
Format : AVC
Format/Info : Advanced Video Codec
Format profile : [email protected]
Format settings : CABAC / 12 Ref Frames
Format settings, CABAC : Yes
Format settings, Reference frames : 12 frames
Codec ID : V_MPEG4/ISO/AVC
Duration : 1 h 48 min
Bit rate : 2 100 kb/s
Width : 1 024 pixels
Height : 426 pixels
Display aspect ratio : 2.40:1
Frame rate mode : Constant
Frame rate : 23.976 (24000/1001) FPS
Color space : YUV
Chroma subsampling : 4:2:0
Bit depth : 8 bits
Scan type : Progressive
Bits/(Pixel*Frame) : 0.201
Stream size : 1.54 GiB (61%)
Title : -=[wolf1245.ExKinoRay]=-
Writing library : x264 core 163
Encoding settings : cabac=1 / ref=12 / deblock=1:-1:-1 / analyse=0x3:0x133 / me=umh / subme=10 / psy=1 / psy_rd=1.00:0.15 / mixed_ref=1 / me_range=32 / chroma_me=1 / trellis=2 / 8x8dct=1 / cqm=0 / deadzone=21,11 / fast_pskip=1 / chroma_qp_offset=-3 / threads=10 / lookahead_threads=2 / sliced_threads=0 / nr=0 / decimate=0 / interlaced=0 / bluray_compat=0 / constrained_intra=0 / bframes=12 / b_pyramid=2 / b_adapt=2 / b_bias=0 / direct=3 / weightb=1 / open_gop=0 / weightp=2 / keyint=240 / keyint_min=24 / scenecut=40 / intra_refresh=0 / rc_lookahead=100 / rc=2pass / mbtree=0 / bitrate=2100 / ratetol=1.0 / qcomp=0.75 / qpmin=0 / qpmax=69 / qpstep=4 / cplxblur=20.0 / qblur=0.5 / vbv_maxrate=50000 / vbv_bufsize=62500 / nal_hrd=none / filler=0 / ip_ratio=1.37 / pb_ratio=1.27 / aq=1:0.90
Language : English
Default : Yes
Forced : No
Color range : Limited
Color primaries : BT.709
Transfer characteristics : BT.709
Matrix coefficients : BT.709
Audio #1
ID : 2
Format : AC-3
Format/Info : Audio Coding 3
Commercial name : Dolby Digital
Codec ID : A_AC3
Duration : 1 h 48 min
Bit rate mode : Constant
Bit rate : 384 kb/s
Channel(s) : 6 channels
Channel layout : L R C LFE Ls Rs
Sampling rate : 48.0 kHz
Frame rate : 31.250 FPS (1536 SPF)
Compression mode : Lossy
Stream size : 298 MiB (12%)
Title : MVO | Jaskier | RUS
Language : Russian
Service kind : Complete Main
Default : Yes
Forced : No
Audio #2
ID : 3
Format : AC-3
Format/Info : Audio Coding 3
Commercial name : Dolby Digital
Codec ID : A_AC3
Duration : 1 h 48 min
Bit rate mode : Constant
Bit rate : 384 kb/s
Channel(s) : 6 channels
Channel layout : L R C LFE Ls Rs
Sampling rate : 48.0 kHz
Frame rate : 31.250 FPS (1536 SPF)
Compression mode : Lossy
Stream size : 298 MiB (12%)
Title : MVO | TVShows | RUS
Language : Russian
Service kind : Complete Main
Default : No
Forced : No
Audio #3
ID : 4
Format : AC-3
Format/Info : Audio Coding 3
Commercial name : Dolby Digital
Codec ID : A_AC3
Duration : 1 h 48 min
Bit rate mode : Constant
Bit rate : 448 kb/s
Channel(s) : 6 channels
Channel layout : L R C LFE Ls Rs
Sampling rate : 48.0 kHz
Frame rate : 31.250 FPS (1536 SPF)
Compression mode : Lossy
Stream size : 347 MiB (14%)
Title : Original | ENG
Language : English
Service kind : Complete Main
Default : No
Forced : No
Text #1
ID : 5
Format : UTF-8
Codec ID : S_TEXT/UTF8
Codec ID/Info : UTF-8 Plain Text
Title : full
Language : Russian
Default : Yes
Forced : No
Text #2
ID : 6
Format : UTF-8
Codec ID : S_TEXT/UTF8
Codec ID/Info : UTF-8 Plain Text
Language : English
Default : No
Forced : No
Text #3
ID : 7
Format : UTF-8
Codec ID : S_TEXT/UTF8
Codec ID/Info : UTF-8 Plain Text
Title : SDH
Language : English
Default : No
Forced : No
Релиз от:
Автор релиза:



Скачать Три тысячи лет желаний через торрент http://i120.fastpic.org/big/2022/0920/30/00ab85b182cb10103fa6f62a5b6f7030.jpg Скачать, смотреть онлайн Три тысячи лет желаний бесплантно в хорошем качестве Описание: Название: Три тысячи лет желаний Оригинальное название: Three Thousand Years of Longing Год выхода: 2022 Жанр: фэнтези, драма, ... 10 10 7
Info! Золотая раздача, скачанное не засчитывается.
Торрент: Зарегистрирован [2022-09-24 07:38] · скачан: 236 раз
Статус: √ проверено
Размер: 2.51 GB
Как cкачать? Как скачать Три тысячи лет желаний через торрент | UTorrent

% Раздел Тема Автор DL S | L
Фильмы [HD 720p, 1080p] (Хороший звук DUB, MVO) [ 11.81 GB ] Три тысячи лет желаний / Three Thousand Years of Longing | Мосфильм-Мастер | 1080p bober100 Скачать
23 | 0
Фильмы 2022 [DVDrip, WEB-DLRip, HDrip] (DUB, MVO) [ 1.46 GB ] Три тысячи лет желаний / Three Thousand Years of Longing | Мосфильм-Мастер | BDRip bober100 Скачать
82 | 2
Фильмы 2022 [DVDrip, WEB-DLRip, HDrip] (DUB, MVO) [ 2.18 GB ] Три тысячи лет желаний / Three Thousand Years of Longing | Мосфильм-Мастер | BDRip bober100 Скачать
32 | 2
Фильмы (Blu-ray, BD-Remux, HDDVD) [ 28.63 GB ] Три тысячи лет желаний / Three Thousand Years of Longing | Мосфильм-Мастер | BD Remux 1080p bober100 Скачать
6 | 0
Фильмы (WEB-DL 720p, 1080p) [ 4.89 GB ] Три тысячи лет желаний / Three Thousand Years of Longing | Мосфильм-Мастер | 1080p bober100 Скачать
24 | 9
Фильмы 2022 [DVDrip, WEB-DLRip, HDrip] (DUB, MVO) [ 1.91 GB ] Три тысячи лет желаний / Three Thousand Years of Longing | Мосфильм-Мастер | DLRip-AVC bober100 Скачать
13 | 0
Ultra HD (UHD: 2K, 4K, 8K) [ 11.91 GB ] Три тысячи лет желаний / Three Thousand Years of Longing | Мосфильм-Мастер | 2160p bober100 Скачать
25 | 8

28-11-2019 20:33  


Отключить вcю реклaмy на сайте, в т.ч. и в плеере онлайн просмотра!

    Дорогой пользователь! Огромная просьба, поблагодарите релизера, оцените раздачу и оставьте свои комментарий, если Вы скачали Три тысячи лет желаний через торрент бесплатно!!
    Комментировать посты могут только пользователи прошедшие не сложную регистрацию
    Показать сообщения:    


    Три тысячи лет желаний через торрент
    Скачать бесплатно Три тысячи лет желаний
    Три тысячи лет желаний скачать торрент
    Три тысячи лет желаний смотреть онлайн
    Cкачать фильм Три тысячи лет желаний бесплатно
    Три тысячи лет желаний скачать торрент в хорошем качестве
    Три тысячи лет желаний смотреть онлайн бесплатно в хорошем качестве
    Вы можете начинать темы
    Вы можете отвечать на сообщения
    Вы не можете редактировать свои сообщения
    Вы не можете удалять свои сообщения
    Вы не можете голосовать в опросах
    Вы не можете прикреплять файлы к сообщениям
    Вы можете скачивать файлы
    Три тысячи лет желаний / Three Thousand Years of Longing [2022, фэнтези, драма, мелодрама, WEB-DLRip-AVC] MVO [Jaskier, TVShows] от ExKinoRay смотреть онлайн, скачать торрент picoco.icu