Доктор Стрэндж

Лицензия

Добыча

Дубляж

Уэнсдэй

1 сезон

Тор

Дубляж

В эфире

Дубляж

Там, где раки поют

MVO

Властелин колец

1 сезон

Deluxe

pack

Рекомендуем

30

Пиратка

ВАЖНО

ВАЖНО

Ghostwire

Пиратка

jed

RePack

nioh2

RePack

RDR2

RePack

NEED FOR SPEED™ PAYBACK

RePack

скачать торрент

Кинопоиск HD

Острые козырьки 6 сезон

6 сезон

FAR CRY 6

RePack

скачать торрент

Лицензия

скачать торрент

MVO

1

1 сезон

скачать торрент

1 сезон

скачать торрент

Лицензия

  

Брайан Бэнкс / Brian Banks (Том Шэдьяк) [2018, Драма, биография, спорт, BDRip 1080p] MVO [iTunes]

Брайан Бэнкс через торрент pb.wtf

Раздают: 1 [ 0 KB/s ]
Размер: 8.03 GB | Добавлен: 2 мес. 13 д. назад | Торрент скачан:84 раза
Смотреть онлайн | Скачать   

24-09-2022 08:39 Брайан Бэнкс Скачать торрент  

Брайан Бэнкс
Brian Banks

Год выпуска: 2018
Страна: США
Студия: Gidden Media, ShivHans Pictures
Жанр: Драма, биография, спорт
Продолжительность: 01:39:46
Перевод: Профессиональный (многоголосый) | iTunes
Субтитры: Русские (форсированные, полные), Английские (SDH)

Режиссер: Том Шэдьяк

rating

В ролях: Элдис Ходж, Грег Кинниэр, Шерри Шеперд, Мелани Либёрд, Тиффани Дюпон, Зоша Рокемор, Мисти Смит, Хосе Васкес, Дориан Миссик, Моника Грант

Описание: История футболиста Брайана Бэнкса, который провёл 5 лет за решёткой по сфабрикованному обвинению. После выхода из тюрьмы Бэнкс продолжил бороться за своё честное имя, чтобы исполнить мечту всей своей жизни и попасть в большой спорт, и добился пересмотра приговора.

Качество: BDRip 1080p
Формат: MKV

Видео: 1920x800 (2.40:1), 23.976 fps, MPEG-4 AVC ~ 10.5 Mbps avg, 0.285 bit/pixel
Аудио: AC3, 48 kHz, 6 ch, ~384.00 kbps avg | русский | MVO |
Аудио: AC3, 48 kHz, 6 ch, ~640.00 kbps avg | английский |
скриншот  скриншот  скриншот  скриншот  скриншот  скриншот  

x264 [info]: frame I:1103 Avg QP:13.27 size:240883
x264 [info]: frame P:32425 Avg QP:15.08 size: 94960
x264 [info]: frame B:109987 Avg QP:16.43 size: 41002
x264 [info]: consecutive B-frames: 3.0% 4.4% 10.4% 11.2% 14.0% 46.1% 5.6% 1.5% 1.6% 1.3% 0.9%
x264 [info]: mb I I16..4: 11.1% 78.7% 10.2%
x264 [info]: mb P I16..4: 3.0% 20.9% 1.0% P16..4: 32.3% 26.6% 13.6% 0.0% 0.0% skip: 2.6%
x264 [info]: mb B I16..4: 0.3% 1.7% 0.1% B16..8: 42.3% 18.6% 5.4% direct: 9.8% skip:21.9% L0:48.8% L1:40.3% BI:10.8%
x264 [info]: 8x8 transform intra:82.8% inter:55.3%
x264 [info]: direct mvs spatial:99.4% temporal:0.6%
x264 [info]: coded y, uvDC, uvAC intra: 92.6% 86.5% 79.0% inter: 43.7% 46.0% 20.3%
x264 [info]: i16 v, h, dc, p: 47% 9% 22% 22%
x264 [info]: i8 v, h, dc, ddl, ddr, vr, hd, vl, hu: 9% 8% 13% 10% 13% 12% 12% 11% 12%
x264 [info]: i4 v, h, dc, ddl, ddr, vr, hd, vl, hu: 8% 7% 6% 10% 16% 15% 14% 11% 13%
x264 [info]: i8c dc, h, v, p: 63% 12% 12% 12%
x264 [info]: Weighted P-Frames: Y:1.6% UV:0.8%
x264 [info]: ref P L0: 47.1% 9.1% 24.3% 9.4% 9.6% 0.4% 0.0%
x264 [info]: ref B L0: 69.1% 20.6% 8.1% 2.1%
x264 [info]: ref B L1: 92.7% 7.3%
x264 [info]: kb/s:10497.45

encoded 143515 frames, 16.89 fps, 10497.45 kb/s
***************************************************

Общее
Уникальный идентификатор : 228096041553852420170676695753055968447 (0xAB99B31D147C7FD785BB7A1360D29CBF)
Полное имя : Brian.Banks.2018.1080p.BluRay.DD.5.1.x264-MegaPeer.mkv
Формат : Matroska
Версия формата : Version 4
Размер файла : 8, 03 Гбайт
Продолжительность : 1 ч. 39 м.
Общий поток : 11, 5 Мбит/сек
Название фильма : Брайан Бэнкс / Brian Banks (2018) от [email protected]
Дата кодирования : UTC 2022-09-24 06:43:22
Программа кодирования : mkvmerge v15.0.0 ('Duel with the Devil') 64-bit
Библиотека кодирования : libebml v1.3.5 + libmatroska v1.4.5
Обложка : Yes
Attachments : cover.jpg

Видео
Идентификатор : 1
Формат : AVC
Формат/Информация : Advanced Video Codec
Профиль формата : [email protected]
Настройки формата : CABAC / 5 Ref Frames
Параметр CABAC формата : Да
Параметр RefFrames формата : 5 кадров
Идентификатор кодека : V_MPEG4/ISO/AVC
Продолжительность : 1 ч. 39 м.
Битрейт : 10, 5 Мбит/сек
Ширина : 1 920 пикселей
Высота : 800 пикселей
Соотношение сторон : 2, 40:1
Режим частоты кадров : Постоянный
Частота кадров : 23, 976 кадра/сек
Цветовое пространство : YUV
Субдискретизация насыщенности : 4:2:0
Битовая глубина : 8 бит
Тип развёртки : Прогрессивная
Бит/(Пиксели*Кадры) : 0.285
Размер потока : 7, 32 Гбайт (91%)
Заголовок : [email protected]
Библиотека кодирования : x264 core 161 r3018 db0d417
Настройки программы : cabac=1 / ref=5 / deblock=1:-3:-3 / analyse=0x3:0x113 / me=umh / subme=10 / psy=1 / psy_rd=1.00:0.00 / mixed_ref=1 / me_range=32 / chroma_me=1 / trellis=2 / 8x8dct=1 / cqm=0 / deadzone=21, 11 / fast_pskip=0 / chroma_qp_offset=-2 / threads=12 / lookahead_threads=3 / sliced_threads=0 / nr=0 / decimate=0 / interlaced=0 / bluray_compat=0 / constrained_intra=0 / bframes=10 / b_pyramid=2 / b_adapt=2 / b_bias=0 / direct=3 / weightb=1 / open_gop=0 / weightp=2 / keyint=240 / keyint_min=24 / scenecut=40 / intra_refresh=0 / rc_lookahead=40 / rc=2pass / mbtree=0 / bitrate=10500 / ratetol=1.0 / qcomp=0.60 / qpmin=0 / qpmax=69 / qpstep=4 / cplxblur=20.0 / qblur=0.5 / vbv_maxrate=50000 / vbv_bufsize=62500 / nal_hrd=none / filler=0 / ip_ratio=1.40 / pb_ratio=1.30 / aq=1:1.10
Язык : English
Default : Да
Forced : Нет

Аудио #1
Идентификатор : 2
Формат : AC-3
Формат/Информация : Audio Coding 3
Коммерческое название : Dolby Digital
Идентификатор кодека : A_AC3
Продолжительность : 1 ч. 39 м.
Вид битрейта : Постоянный
Битрейт : 384 Кбит/сек
Каналы : 6 каналов
Channel layout : L R C LFE Ls Rs
Частота : 48, 0 КГц
Частота кадров : 31, 250 кадров/сек (1536 SPF)
Метод сжатия : С потерями
Размер потока : 274 Мбайт (3%)
Заголовок : MVO | iTunes
Язык : Russian
Service kind : Complete Main
Default : Да
Forced : Да

Аудио #2
Идентификатор : 3
Формат : AC-3
Формат/Информация : Audio Coding 3
Коммерческое название : Dolby Digital
Идентификатор кодека : A_AC3
Продолжительность : 1 ч. 39 м.
Вид битрейта : Постоянный
Битрейт : 640 Кбит/сек
Каналы : 6 каналов
Channel layout : L R C LFE Ls Rs
Частота : 48, 0 КГц
Частота кадров : 31, 250 кадров/сек (1536 SPF)
Метод сжатия : С потерями
Размер потока : 457 Мбайт (6%)
Язык : English
Service kind : Complete Main
Default : Нет
Forced : Нет

Текст #1
Идентификатор : 4
Формат : UTF-8
Идентификатор кодека : S_TEXT/UTF8
Идентификатор кодека/Информация : UTF-8 Plain Text
Продолжительность : 1 ч. 34 м.
Битрейт : 5 бит/сек
Count of elements : 74
Размер потока : 3, 70 Кбайт (0%)
Заголовок : Forced
Язык : Russian
Default : Да
Forced : Да

Текст #2
Идентификатор : 5
Формат : UTF-8
Идентификатор кодека : S_TEXT/UTF8
Идентификатор кодека/Информация : UTF-8 Plain Text
Продолжительность : 1 ч. 34 м.
Битрейт : 107 бит/сек
Count of elements : 1305
Размер потока : 75, 1 Кбайт (0%)
Заголовок : Full
Язык : Russian
Default : Нет
Forced : Нет

Текст #3
Идентификатор : 6
Формат : UTF-8
Идентификатор кодека : S_TEXT/UTF8
Идентификатор кодека/Информация : UTF-8 Plain Text
Продолжительность : 1 ч. 33 м.
Битрейт : 80 бит/сек
Count of elements : 1536
Размер потока : 55, 7 Кбайт (0%)
Заголовок : SDH
Язык : English
Default : Нет
Forced : Нет

Меню
00:00:00.000 : :Chapter: 01
00:05:49.182 : :Chapter: 02
00:10:11.528 : :Chapter: 03
00:14:00.965 : :Chapter: 04
00:20:07.038 : :Chapter: 05
00:25:57.055 : :Chapter: 06
00:30:17.105 : :Chapter: 07
00:34:03.289 : :Chapter: 08
00:40:58.498 : :Chapter: 09
00:45:15.670 : :Chapter: 10
00:50:08.213 : :Chapter: 11
00:55:01.130 : :Chapter: 12
01:00:45.599 : :Chapter: 13
01:04:00.795 : :Chapter: 14
01:10:26.345 : :Chapter: 15
01:14:43.395 : :Chapter: 16
01:17:11.627 : :Chapter: 17
01:24:14.925 : :Chapter: 18
01:29:24.734 : :Chapter: 19
01:35:00.528 : :Chapter: 20




Скачать Брайан Бэнкс через торрент https://i120.fastpic.org/big/2022/0924/da/bccf1b9826305fcc6c42b835882671da.jpg Скачать, смотреть онлайн Брайан Бэнкс бесплантно в хорошем качестве Описание: История футболиста Брайана Бэнкса, который провёл 5 лет за решёткой по сфабрикованному обвинению. После выхода из тюрьмы Бэнкс ... 9.5 10 8
Торрент: Зарегистрирован [2022-09-24 08:39] · скачан: 84 раз
Статус: √ проверено
Размер: 8.03 GB
Как cкачать? Как скачать Брайан Бэнкс через торрент | UTorrent

% Раздел Тема Автор DL S | L
Фильмы 2018 [DVDrip, WEB-DLRip, HDrip] (DUB, MVO) [ 1.46 GB ] Брайан Бэнкс / Brian Banks | iTunes | BDRip bober100 Скачать
2 | 0
Фильмы [HD 720p, 1080p] (Хороший звук DUB, MVO) [ 3.5 GB ] Брайан Бэнкс / Brian Banks | iTunes | 720p bober100 Скачать
1 | 0

28-11-2019 20:33  


Отключить вcю реклaмy на сайте, в т.ч. и в плеере онлайн просмотра!

24-09-2022 15:32 Брайан Бэнкс Скачать торрент  

опять помойку свою сняли..про пиндоский негроидский футбол



24-09-2022 19:12 Брайан Бэнкс Скачать торрент  

BerserkerRR писал(а):

опять помойку свою сняли..про пиндоский негроидский футбол

и не говори, вот бы про наш родимый сняли, про мамаева-кокорина и онаниста дзюбу



24-09-2022 20:42 Брайан Бэнкс Скачать торрент  

BerserkerRR писал(а):

опять помойку свою сняли..про пиндоский негроидский футбол

да не гони... норм фильм... про прогнивший закон....
если взять то что снимают последнее время фильм на твердую 4



24-09-2022 20:43 Брайан Бэнкс Скачать торрент  

BerserkerRR писал(а):

опять помойку свою сняли..про пиндоский негроидский футбол

да не гони... норм фильм... про прогнивший закон....
если взять то что снимают последнее время фильм на твердую 4

mrAmerica писал(а):

BerserkerRR писал(а):

опять помойку свою сняли..про пиндоский негроидский футбол

и не говори, вот бы про наш родимый сняли, про мамаева-кокорина и онаниста дзюбу

5 балов!=)))



    Дорогой пользователь! Огромная просьба, поблагодарите релизера, оцените раздачу и оставьте свои комментарий, если Вы скачали Брайан Бэнкс через торрент бесплатно!!
    Комментировать посты могут только пользователи прошедшие не сложную регистрацию
    Показать сообщения:    


    Брайан Бэнкс через торрент
    Скачать бесплатно Брайан Бэнкс
    Брайан Бэнкс скачать торрент
    Брайан Бэнкс смотреть онлайн
    Cкачать фильм Брайан Бэнкс бесплатно
    Брайан Бэнкс скачать торрент в хорошем качестве
    Брайан Бэнкс смотреть онлайн бесплатно в хорошем качестве
    Вы не можете начинать темы
    Вы не можете отвечать на сообщения
    Вы не можете редактировать свои сообщения
    Вы не можете удалять свои сообщения
    Вы не можете голосовать в опросах
    Вы не можете прикреплять файлы к сообщениям
    Вы можете скачивать файлы
    Брайан Бэнкс / Brian Banks [2018, Драма, биография, спорт, BDRip 1080p] MVO [iTunes] смотреть онлайн, скачать торрент picoco.icu