Доктор Стрэндж

Лицензия

Добыча

Дубляж

Дом дракона

1 сезон

Тор

Дубляж

В эфире

Дубляж

Там, где раки поют

MVO

Властелин колец

1 сезон

Deluxe

pack

Рекомендуем

30

Пиратка

ВАЖНО

ВАЖНО

Ghostwire

Пиратка

jed

RePack

nioh2

RePack

RDR2

RePack

NEED FOR SPEED™ PAYBACK

RePack

скачать торрент

Кинопоиск HD

Острые козырьки 6 сезон

6 сезон

FAR CRY 6

RePack

скачать торрент

Лицензия

скачать торрент

MVO

1

1 сезон

скачать торрент

1 сезон

скачать торрент

Лицензия

  

Андор / Andor / Сезон: 1 / Серии: 1-7 из 12 (Бенджамин Карон, Тоби Хэйнс, Сюзанна Уайт) [2022, Фантастика, боевик, триллер, драма, приключения, WEB-DL (HEVC)1080p] 2x [MVO] (HDRezka, TVShows) + [Ukr MVO]

Андор через торрент pb.wtf

Раздают: 2 [ 0 KB/s ] Качают: 5 [ 730 KB/s ]
Размер: 10.73 GB | Добавлен: 1 мес. 10 д. назад | Торрент скачан:22 раза
Смотреть онлайн | Скачать   

24-09-2022 10:39 Андор Скачать торрент  

Андор / Andor

✦ Год выпуска: 2022
✦ Страна: США
✦ Жанр: Фантастика, боевик, триллер, драма, приключения
✦ Продолжительность: 00:40:00
✦ Перевод #1: Профессиональный (многоголосый закадровый) - HDRezka
✦ Перевод #2: Профессиональный (многоголосый закадровый) - TVShows
✦ Перевод #3: Профессиональный (многоголосый закадровый) - "Цікава Ідея" - Украинский
✦ Субтитры: русские (forced, full), английские

Режиссёр: Бенджамин Карон, Тоби Хэйнс, Сюзанна Уайт

В ролях: Диего Луна, Женевьев О`Рейли, Алекс Фернс, Уилф Сколдинг, Нуф Макьюэн, Адриа Архона, Клеменс Шик, Энтон Саундерс, Дениз Гоф, Александр Боуман

Описание: Действие происходит за несколько лет до событий, показанных в «Изгой-один. Звёздные войны: Истории». Профессиональный вор со сложным характером Кассиан Андор, далекий от политики и идей революции, сосредоточен на том, чтобы свести концы с концами для себя и своей приемной матери Маарвы, параллельно пытаясь разыскать сестру, с которой был разлучен много лет назад. В результате судьбоносных обстоятельств он меняет свои убеждения и присоединяется к Повстанческому Альянсу, став пилотом и офицером-разведчиком, чтобы противостоять Галактической Империи.

rating

✦ Качество: WEB-DL (HEVC) 1080p
✦ Формат: MKV
✦ Видео: HEVC, 1920x1080, ~ 3 000 kbps/s, 23,976 fps
✦ Аудио #1 Rus: 48 kHz, AC3, 6 ch, 448 kbps | HDRezka (1-7 серии)
✦ Аудио #2 Rus: 48 kHz, AC3, 2 ch, 192 kbps | TVShows (1-7 серии)
✦ Аудио #3 Ukr: 48 kHz, AC3, 6 ch, 512 kbps | "Цікава Ідея" (1-7 серии)
✦ Аудио #4 Eng: 48 kHz, E-AC3, 6 ch, 768 kbps | оригинал
скриншот  скриншот  скриншот  скриншот  скриншот  
General
Unique ID : 207690960759658083822692266295340221682 (0x9C3FD2F4FA34CECC8009853972B2C4F2)
Complete name : F:\Andor.s01.WEB-DL(HEVC)1080p.xz\Andor.S01E01.WEB-DL(HEVC)1080p.[HDRezka,TVShows], [UKR].xz.mkv
Format : Matroska
Format version : Version 4
File size : 1.34 GiB
Duration : 39 min 10 s
Overall bit rate : 4 891 kb/s
Movie name : Andor.S01E01.WEB-DL(HEVC)1080p.[HDRezka,TVShows], [UKR].xz
Encoded date : UTC 2022-09-24 09:49:09
Writing application : mkvmerge v6.1.0 ('Old Devil') built on Mar 2 2013 14:32:37
Writing library : libebml v1.3.0 + libmatroska v1.4.0

Video
ID : 1
Format : HEVC
Format/Info : High Efficiency Video Coding
Format profile : Main [email protected]@Main
Codec ID : V_MPEGH/ISO/HEVC
Duration : 39 min 10 s
Bit rate : 2 873 kb/s
Width : 1 920 pixels
Height : 1 080 pixels
Display aspect ratio : 16:9
Frame rate mode : Constant
Frame rate : 24.000 FPS
Color space : YUV
Chroma subsampling : 4:2:0
Bit depth : 10 bits
Bits/(Pixel*Frame) : 0.058
Stream size : 805 MiB (59%)
Title : Andor.S01E01.WEB-DL(HEVC)1080p.[HDRezka,TVShows], [UKR].xz
Writing library : x265 3.5+8-57e817329:[Windows][GCC 10.2.0][64 bit] 10bit
Encoding settings : cpuid=1111039 / frame-threads=3 / numa-pools=8 / wpp / no-pmode / no-pme / no-psnr / no-ssim / log-level=2 / input-csp=1 / input-res=1920x1080 / interlace=0 / total-frames=56414 / level-idc=0 / high-tier=1 / uhd-bd=0 / ref=3 / no-allow-non-conformance / no-repeat-headers / annexb / no-aud / no-hrd / info / hash=0 / no-temporal-layers / open-gop / min-keyint=23 / keyint=250 / gop-lookahead=0 / bframes=4 / b-adapt=2 / b-pyramid / bframe-bias=0 / rc-lookahead=20 / lookahead-slices=6 / scenecut=40 / hist-scenecut=0 / radl=0 / no-splice / no-intra-refresh / ctu=64 / min-cu-size=8 / no-rect / no-amp / max-tu-size=32 / tu-inter-depth=1 / tu-intra-depth=1 / limit-tu=0 / rdoq-level=0 / dynamic-rd=0.00 / no-ssim-rd / signhide / no-tskip / nr-intra=0 / nr-inter=0 / no-constrained-intra / strong-intra-smoothing / max-merge=3 / limit-refs=1 / no-limit-modes / me=1 / subme=2 / merange=57 / temporal-mvp / no-frame-dup / no-hme / weightp / no-weightb / no-analyze-src-pics / deblock=0:0 / sao / no-sao-non-deblock / rd=3 / selective-sao=4 / early-skip / rskip / no-fast-intra / no-tskip-fast / no-cu-lossless / b-intra / no-splitrd-skip / rdpenalty=0 / psy-rd=2.00 / psy-rdoq=0.00 / no-rd-refine / no-lossless / cbqpoffs=0 / crqpoffs=0 / rc=crf / crf=17.4 / qcomp=0.60 / qpstep=4 / stats-write=0 / stats-read=0 / ipratio=1.40 / pbratio=1.30 / aq-mode=2 / aq-strength=1.00 / cutree / zone-count=0 / no-strict-cbr / qg-size=32 / no-rc-grain / qpmax=69 / qpmin=0 / no-const-vbv / sar=0 / overscan=0 / videoformat=5 / range=0 / colorprim=2 / transfer=2 / colormatrix=2 / chromaloc=0 / display-window=0 / cll=0,0 / min-luma=0 / max-luma=1023 / log2-max-poc-lsb=8 / vui-timing-info / vui-hrd-info / slices=1 / no-opt-qp-pps / no-opt-ref-list-length-pps / no-multi-pass-opt-rps / scenecut-bias=0.05 / hist-threshold=0.03 / no-opt-cu-delta-qp / no-aq-motion / no-hdr10 / no-hdr10-opt / no-dhdr10-opt / no-idr-recovery-sei / analysis-reuse-level=0 / analysis-save-reuse-level=0 / analysis-load-reuse-level=0 / scale-factor=0 / refine-intra=0 / refine-inter=0 / refine-mv=1 / refine-ctu-distortion=0 / no-limit-sao / ctu-info=0 / no-lowpass-dct / refine-analysis-type=0 / copy-pic=1 / max-ausize-factor=1.0 / no-dynamic-refine / no-single-sei / no-hevc-aq / no-svt / no-field / qp-adaptation-range=1.00 / scenecut-aware-qp=0conformance-window-offsets / right=0 / bottom=0 / decoder-max-rate=0 / no-vbv-live-multi-pass
Default : Yes
Forced : Yes
Duration_Source : General_Duration

Audio #1
ID : 2
Format : AC-3
Format/Info : Audio Coding 3
Commercial name : Dolby Digital
Codec ID : A_AC3
Duration : 39 min 10 s
Bit rate mode : Constant
Bit rate : 448 kb/s
Channel(s) : 6 channels
Channel layout : L R C LFE Ls Rs
Sampling rate : 48.0 kHz
Frame rate : 31.250 FPS (1536 SPF)
Compression mode : Lossy
Stream size : 126 MiB (9%)
Title : HDR
Language : Russian
Service kind : Complete Main
Default : No
Forced : No
Duration_Source : General_Duration

Audio #2
ID : 3
Format : AC-3
Format/Info : Audio Coding 3
Commercial name : Dolby Digital
Codec ID : A_AC3
Duration : 39 min 10 s
Bit rate mode : Constant
Bit rate : 192 kb/s
Channel(s) : 2 channels
Channel layout : L R
Sampling rate : 48.0 kHz
Frame rate : 31.250 FPS (1536 SPF)
Compression mode : Lossy
Stream size : 53.8 MiB (4%)
Title : TVShows
Language : Russian
Service kind : Complete Main
Default : No
Forced : No
Duration_Source : General_Duration

Audio #3
ID : 4
Format : AC-3
Format/Info : Audio Coding 3
Commercial name : Dolby Digital
Codec ID : A_AC3
Duration : 39 min 10 s
Bit rate mode : Constant
Bit rate : 512 kb/s
Channel(s) : 6 channels
Channel layout : L R C LFE Ls Rs
Sampling rate : 48.0 kHz
Frame rate : 31.250 FPS (1536 SPF)
Compression mode : Lossy
Stream size : 143 MiB (10%)
Title : Цікава Ідея
Language : Ukrainian
Service kind : Complete Main
Default : No
Forced : No
Statistics Tags Issue : mkvmerge v50.0.0 ('Awakenings') 64-bit 2022-09-21 18:20:50 / mkvmerge v6.1.0 ('Old Devil') built on Mar 2 2013 14:32:37 2022-09-24 09:49:09
FromStats_BitRate : 512000
FromStats_Duration : 00:39:10.592000000
FromStats_FrameCount : 73456
FromStats_StreamSize : 150437888
Duration_Source : General_Duration

Audio #4
ID : 5
Format : E-AC-3 JOC
Format/Info : Enhanced AC-3 with Joint Object Coding
Commercial name : Dolby Digital Plus with Dolby Atmos
Codec ID : A_EAC3
Duration : 39 min 10 s
Bit rate mode : Constant
Bit rate : 768 kb/s
Channel(s) : 6 channels
Channel layout : L R C LFE Ls Rs
Sampling rate : 48.0 kHz
Frame rate : 31.250 FPS (1536 SPF)
Compression mode : Lossy
Stream size : 215 MiB (16%)
Language : English
Service kind : Complete Main
Default : No
Forced : No
Statistics Tags Issue : mkvmerge v70.0.0 ('Caught A Lite Sneeze') 64-bit 2022-09-21 08:48:41 / mkvmerge v6.1.0 ('Old Devil') built on Mar 2 2013 14:32:37 2022-09-24 09:49:09
FromStats_BitRate : 768000
FromStats_Duration : 00:39:10.592000000
FromStats_FrameCount : 73456
FromStats_StreamSize : 225656832
Complexity index : 16
Number of dynamic objects : 15
Bed channel count : 1 channel
Bed channel configuration : LFE
Duration_Source : General_Duration

Text #1
ID : 6
Format : UTF-8
Codec ID : S_TEXT/UTF8
Codec ID/Info : UTF-8 Plain Text
Language : English
Default : No
Forced : No
Statistics Tags Issue : mkvmerge v70.0.0 ('Caught A Lite Sneeze') 64-bit 2022-09-21 08:48:41 / mkvmerge v6.1.0 ('Old Devil') built on Mar 2 2013 14:32:37 2022-09-24 09:49:09
FromStats_BitRate : 59
FromStats_Duration : 00:33:07.542000000
FromStats_FrameCount : 444
FromStats_StreamSize : 14827

Text #2
ID : 7
Format : UTF-8
Codec ID : S_TEXT/UTF8
Codec ID/Info : UTF-8 Plain Text
Title : SDH
Language : English
Default : No
Forced : No
Statistics Tags Issue : mkvmerge v70.0.0 ('Caught A Lite Sneeze') 64-bit 2022-09-21 08:48:41 / mkvmerge v6.1.0 ('Old Devil') built on Mar 2 2013 14:32:37 2022-09-24 09:49:09
FromStats_BitRate : 63
FromStats_Duration : 00:35:25.083000000
FromStats_FrameCount : 527
FromStats_StreamSize : 16766

Text #3
ID : 8
Format : UTF-8
Codec ID : S_TEXT/UTF8
Codec ID/Info : UTF-8 Plain Text
Title : forced
Language : Russian
Default : No
Forced : No

Text #4
ID : 9
Format : UTF-8
Codec ID : S_TEXT/UTF8
Codec ID/Info : UTF-8 Plain Text
Title : "Где тексты, Лебовски?"
Language : Russian
Default : No
Forced : No
Внимание! Раздача ведётся путём добавления новых серий; при каждом добавлении создаётся новый торрент.
Чтобы начать докачку новой серии, пользователям необходимо сделать следующее:
1. Остановить скачивание.
2. Удалить старый торрент у себя из клиента (старые серии удалять не надо).
3. Скачать новый торрент и запустить его у себя в клиенте вместо старого, при этом указать клиенту путь в старую папку куда и должно происходить скачивание новых серий.
Ваш клиент при этом должен произвести хеширование (проверку) старой папки (если не производит сам - помогите ему сделать это), и будет докачивать только те серии которых у вас ещё нет. Старые серии при этом не удаляются, а продолжают раздаваться!
Eсли вы уже удалили старые серии, то предотвратить повторную закачку старых серий можно, отжав галочку в соответствующих местах при запуске нового торрента.



Скачать Андор через торрент https://i.ibb.co/pz0rYvC/6a8fdf46ecf8a4c5add026c3d2a4fae1.jpg Скачать, смотреть онлайн Андор бесплантно в хорошем качестве Описание: Действие происходит за несколько лет до событий, показанных в «Изгой-один. Звёздные войны: Истории». Профессиональный вор со ... 8.8 10 31
Торрент: Зарегистрирован [2022-10-23 10:10] · скачан: 22 раз
Статус: √ проверено
Размер: 10.73 GB
Как cкачать? Как скачать Андор через торрент | UTorrent

% Раздел Тема Автор DL S | L
Зарубежные сериалы [ 14.2 GB ] Андор / Andor / Сезон: 1 / Серии: 1-12 из 12 | DUB | 720p bober100 Скачать
6 | 6
Зарубежные сериалы [ 6.72 GB ] Андор / Andor / Сезон: 1 / Серии: 1-12 из 12 + Спецвыпуск | HDRezka Studio | DLRip bober100 Скачать
21 | 8
Зарубежные сериалы [ 22.55 GB ] Андор / Andor / Сезон: 1 / Серии: 1-12 из 12 | DUB | 1080p bober100 Скачать
14 | 7
Зарубежные сериалы [ 29.91 GB ] Андор / Andor / Сезон: 1 / Серии: 1-12 из 12 | MVO | 1080p bober100 Скачать
14 | 9
Зарубежные сериалы [ 6.67 GB ] Андор / Andor / Сезон: 1 / Серии: 1-12 из 12 | DUB | DLRip bober100 Скачать
7 | 2
Зарубежные сериалы [ 8.14 GB ] Андор / Andor / Сезон: 1 / Серии: 0-12 из 12 | LostFilm | DLRip bober100 Скачать
12 | 1
Зарубежные сериалы [ 277 MB ] Андор / Andor / Сезон: 1 / Серии: 0- из 12 | HDRezka Studio | 720p bober100 Скачать
1 | 0



Последний раз редактировалось: killermax2013 (2022-10-23 10:10), всего редактировалось 6 раз(а)

28-11-2019 20:33  


Отключить вcю реклaмy на сайте, в т.ч. и в плеере онлайн просмотра!

29-09-2022 16:42 Андор Скачать торрент  

А вот это хорошо



    Дорогой пользователь! Огромная просьба, поблагодарите релизера, оцените раздачу и оставьте свои комментарий, если Вы скачали Андор через торрент бесплатно!!
    Комментировать посты могут только пользователи прошедшие не сложную регистрацию
    Показать сообщения:    


    Андор через торрент
    Скачать бесплатно Андор
    Андор скачать торрент
    Андор смотреть онлайн
    Cкачать фильм Андор бесплатно
    Андор скачать торрент в хорошем качестве
    Андор смотреть онлайн бесплатно в хорошем качестве
    Вы не можете начинать темы
    Вы не можете отвечать на сообщения
    Вы не можете редактировать свои сообщения
    Вы не можете удалять свои сообщения
    Вы не можете голосовать в опросах
    Вы не можете прикреплять файлы к сообщениям
    Вы можете скачивать файлы
    Андор / Andor / Сезон: 1 / Серии: 1-7 из 12 [2022, Фантастика, боевик, триллер, драма, приключения, WEB-DL 1080p] 2x [MVO] + [Ukr MVO] смотреть онлайн, скачать торрент picoco.icu