Доктор Стрэндж

Лицензия

Добыча

Дубляж

Дом дракона

1 сезон

Тор

Дубляж

В эфире

Дубляж

Там, где раки поют

MVO

Властелин колец

1 сезон

GLOBAL

pack

Рекомендуем

30

Пиратка

ВАЖНО

ВАЖНО

Ghostwire

Пиратка

jed

RePack

nioh2

RePack

RDR2

RePack

NEED FOR SPEED™ PAYBACK

RePack

скачать торрент

Кинопоиск HD

Острые козырьки 6 сезон

6 сезон

FAR CRY 6

RePack

скачать торрент

Лицензия

скачать торрент

MVO

1

1 сезон

скачать торрент

1 сезон

скачать торрент

Лицензия

  

Река Мира / Peace River (Даг Вэйл) [2022, драма, WEB-DLRip-AVC] DVO [Pazl Voice] от ExKinoRay

Река Мира через торрент pb.wtf

Размер: 2.58 GB | Добавлен: 2 мес. 5 д. назад | Торрент скачан:31 раз
Смотреть онлайн | Скачать   

24-09-2022 11:40 Река Мира Скачать торрент  


Река Мира / Peace River
Информация Описание:
Название: Река Мира
Оригинальное название: Peace River
Год выхода: 2022
Жанр: Драма
Режиссер: Даг Вэйл
В ролях: Чейз Гарлэнд, Бенджамин М. Джонс, Джессика Нуньес-Вуд, Кит Аллен, Майкл Томас Энджел, Зейн Барбер, Кэззи Луис Серегино, Эмиллио Шейн Дурбей, Даниэль Ивс, Р. Хэмптон

Описание: Двое маленьких детей, растущих в ковбойской жизни родео, создают основу друг для друга и семьи. Он становится чемпионом родео-ковбоем и солдатом спецназа, но раздавлен войной и личными потерями. Она должна смотреть, как он борется. Он должен опираться на веру и "ковбойский путь", чтобы вернуть себе волю к жизни и любовь всей своей жизни.

rating

Страна: США
Студия: FaithWorks Pictures
Продолжительность: 02:14:29
Перевод: Любительский (двухголосый, закадровый) - Pazl Voice



Информация о файле:
Кодек: AVC
Формат: MKV
Качество: WEB-DLRip-AVC
Видео: MPEG-4 AVC, 1024x576, 23.976 fps, 1980 kbps
Аудио RU: AC3, 6 ch, 48 kHz, 384 kbps
Аудио EN: AC3, 6 ch, 48 kHz, 384 kbps
Субтитры: Английские



[x264] frame I:1450 Avg QP:14.59 size: 79169
[x264] frame P:48665 Avg QP:17.89 size: 22387
[x264] frame B:143352 Avg QP:19.66 size: 5530
General
Unique ID : 191415753056616655404590423641673633946 (0x90015543AD473E9871DCC53FB223109A)
Complete name : D:uTorrentРипы wolf1245Peace River.2022.DVO.Pazl.x264.WEB-DLRip-AVC.[wolf1245.ExKinoRay].mkv
Format : Matroska
Format version : Version 4
File size : 2.58 GiB
Duration : 2 h 14 min
Overall bit rate : 2 750 kb/s
Movie name : Peace River.2022.DVO.Pazl.x264.WEB-DLRip-AVC.[wolf1245.ExKinoRay]
Encoded date : UTC 2022-09-24 11:23:50
Writing application : mkvmerge v70.0.0 ('Caught A Lite Sneeze') 64-bit
Writing library : libebml v1.4.2 + libmatroska v1.6.4
Video
ID : 1
Format : AVC
Format/Info : Advanced Video Codec
Format profile : [email protected]
Format settings : CABAC / 14 Ref Frames
Format settings, CABAC : Yes
Format settings, Reference frames : 14 frames
Codec ID : V_MPEG4/ISO/AVC
Duration : 2 h 14 min
Bit rate : 1 980 kb/s
Width : 1 024 pixels
Height : 576 pixels
Display aspect ratio : 16:9
Frame rate mode : Constant
Frame rate : 23.976 (24000/1001) FPS
Color space : YUV
Chroma subsampling : 4:2:0
Bit depth : 8 bits
Scan type : Progressive
Bits/(Pixel*Frame) : 0.140
Stream size : 1.86 GiB (72%)
Title : -=[wolf1245.ExKinoRay]=-
Writing library : x264 core 163
Encoding settings : cabac=1 / ref=14 / deblock=1:-1:-1 / analyse=0x3:0x133 / me=umh / subme=10 / psy=1 / psy_rd=0.98:0.15 / mixed_ref=1 / me_range=32 / chroma_me=1 / trellis=2 / 8x8dct=1 / cqm=0 / deadzone=21,11 / fast_pskip=1 / chroma_qp_offset=-3 / threads=10 / lookahead_threads=2 / sliced_threads=0 / nr=0 / decimate=0 / interlaced=0 / bluray_compat=0 / constrained_intra=0 / bframes=12 / b_pyramid=2 / b_adapt=2 / b_bias=0 / direct=3 / weightb=1 / open_gop=0 / weightp=2 / keyint=240 / keyint_min=24 / scenecut=40 / intra_refresh=0 / rc_lookahead=100 / rc=2pass / mbtree=0 / bitrate=1980 / ratetol=1.0 / qcomp=0.75 / qpmin=0 / qpmax=69 / qpstep=4 / cplxblur=20.0 / qblur=0.5 / vbv_maxrate=50000 / vbv_bufsize=62500 / nal_hrd=none / filler=0 / ip_ratio=1.37 / pb_ratio=1.27 / aq=3:0.90
Language : English
Default : Yes
Forced : No
Color range : Limited
Color primaries : BT.709
Transfer characteristics : BT.709
Matrix coefficients : BT.709
Audio #1
ID : 2
Format : AC-3
Format/Info : Audio Coding 3
Commercial name : Dolby Digital
Codec ID : A_AC3
Duration : 2 h 14 min
Bit rate mode : Constant
Bit rate : 384 kb/s
Channel(s) : 6 channels
Channel layout : L R C LFE Ls Rs
Sampling rate : 48.0 kHz
Frame rate : 31.250 FPS (1536 SPF)
Compression mode : Lossy
Stream size : 369 MiB (14%)
Title : DVO | Pazl Voice | RUS
Language : Russian
Service kind : Complete Main
Default : Yes
Forced : No
Audio #2
ID : 3
Format : AC-3
Format/Info : Audio Coding 3
Commercial name : Dolby Digital
Codec ID : A_AC3
Duration : 2 h 14 min
Bit rate mode : Constant
Bit rate : 384 kb/s
Channel(s) : 6 channels
Channel layout : L R C LFE Ls Rs
Sampling rate : 48.0 kHz
Frame rate : 31.250 FPS (1536 SPF)
Compression mode : Lossy
Stream size : 369 MiB (14%)
Title : Original | ENG
Language : English
Service kind : Complete Main
Default : No
Forced : No
Text #1
ID : 4
Format : UTF-8
Codec ID : S_TEXT/UTF8
Codec ID/Info : UTF-8 Plain Text
Duration : 2 h 12 min
Bit rate : 50 b/s
Count of elements : 1599
Stream size : 49.4 KiB (0%)
Title : SDH
Language : English
Default : No
Forced : No
Text #2
ID : 5
Format : UTF-8
Codec ID : S_TEXT/UTF8
Codec ID/Info : UTF-8 Plain Text
Duration : 2 h 12 min
Bit rate : 49 b/s
Count of elements : 1537
Stream size : 48.2 KiB (0%)
Language : English
Default : No
Forced : No
Menu
00:00:00.000 : :Chapter 1
00:10:09.526 : :Chapter 2
00:21:27.996 : :Chapter 3
00:29:48.204 : :Chapter 4
00:41:31.991 : :Chapter 5
00:49:46.111 : :Chapter 6
00:59:55.887 : :Chapter 7
01:10:28.520 : :Chapter 8
01:19:47.787 : :Chapter 9
01:30:11.161 : :Chapter 10
01:44:30.145 : :Chapter 11
01:55:41.983 : :Chapter 12
02:09:28.393 : :Chapter 13
Релиз от:
Автор релиза:



Скачать Река Мира через торрент http://i120.fastpic.org/big/2022/0924/e8/29f65bd5ca3cf8db36726baf82095ee8.jpg Скачать, смотреть онлайн Река Мира бесплантно в хорошем качестве Описание: Название: Река Мира Оригинальное название: Peace River Год выхода: 2022 Жанр: Драма Режиссер: Даг Вэйл В ролях: Чейз ... 10 10 3
Info! Золотая раздача, скачанное не засчитывается.
Торрент: Зарегистрирован [2022-09-24 11:40] · скачан: 31 раз
Статус: T временная
Размер: 2.58 GB
Как cкачать? Как скачать Река Мира через торрент | UTorrent

28-11-2019 20:33  


Отключить вcю реклaмy на сайте, в т.ч. и в плеере онлайн просмотра!

    Дорогой пользователь! Огромная просьба, поблагодарите релизера, оцените раздачу и оставьте свои комментарий, если Вы скачали Река Мира через торрент бесплатно!!
    Комментировать посты могут только пользователи прошедшие не сложную регистрацию
    Показать сообщения:    


    Река Мира через торрент
    Скачать бесплатно Река Мира
    Река Мира скачать торрент
    Река Мира смотреть онлайн
    Cкачать фильм Река Мира бесплатно
    Река Мира скачать торрент в хорошем качестве
    Река Мира смотреть онлайн бесплатно в хорошем качестве
    Вы можете начинать темы
    Вы можете отвечать на сообщения
    Вы не можете редактировать свои сообщения
    Вы не можете удалять свои сообщения
    Вы не можете голосовать в опросах
    Вы не можете прикреплять файлы к сообщениям
    Вы можете скачивать файлы
    Река Мира / Peace River [2022, драма, WEB-DLRip-AVC] DVO [Pazl Voice] от ExKinoRay смотреть онлайн, скачать торрент picoco.icu