Доктор Стрэндж

Лицензия

Добыча

Дубляж

Дом дракона

1 сезон

Тор

Дубляж

В эфире

Дубляж

Там, где раки поют

MVO

Властелин колец

1 сезон

GLOBAL

pack

Рекомендуем

30

Пиратка

ВАЖНО

ВАЖНО

Ghostwire

Пиратка

jed

RePack

nioh2

RePack

RDR2

RePack

NEED FOR SPEED™ PAYBACK

RePack

скачать торрент

Кинопоиск HD

Острые козырьки 6 сезон

6 сезон

FAR CRY 6

RePack

скачать торрент

Лицензия

скачать торрент

MVO

1

1 сезон

скачать торрент

1 сезон

скачать торрент

Лицензия

  

Андор / Andor / Сезон: 1 / Серии: 0-12 из 12 (Бенджамин Карон, Тоби Хэйнс, Сюзанна Уайт) [2022, Фантастика, боевик, триллер, драма, приключения, WEB-DLRip] MVO [LostFilm]

Андор через торрент pb.wtf

Раздают: 6 [ 538 KB/s ] Качают: 4 [ 2 MB/s ]
Размер: 8.14 GB | Добавлен: 2 д. 20 ч. назад | Торрент скачан:22 раза
Смотреть онлайн | Скачать   

25-09-2022 11:18 Андор Скачать торрент  

Андор | Andor
«---»

Год выпуска: 2022
Страна: США
Выпущено: Lucasfilm
Жанр: Фантастика, боевик, триллер, драма, приключения
Продолжительность: 1 x 00:09:31, ~ 00:39:00
Перевод: Профессиональный (многоголосый) | LostFilm
Субтитры: Русские (Forced |HDRezka, Где тексты, Лебовски?|), английские (SDH)

Режиссер: Бенджамин Карон, Тоби Хэйнс, Сюзанна Уайт

rating

В ролях: Диего Луна (Diego Luna), Женевьев О’Рейли (Genevieve O'Reilly), Алекс Фернс (Alex Ferns), Уилф Сколдинг (Wilf Scolding), Нуф Макьюэн (Noof Ousellam), Адриа Архона (Adria Arjona), Клеменс Шик (Clemens Schick), Энтон Саундерс (Anton Valensi), Тим Фарадей (Tim Faraday), Ли Бордман (Lee Boardman), Стивен Уайт (Stephen Wight)

Описание: Действие происходит за пять лет до событий фильма «Изгой-один» и рассказывает о группе персонажей в период формирования Повстанческого альянса в целях борьбы против Галактической Империи. Один из таких персонажей — Кассиан Андор, вор, который становится революционером и в итоге присоединяется к сопротивлению.

Качество: WEB-DLRip
Формат: AVI

Видео: XviD, 720x304 (2,35:1), 24,000 кадров/сек, 1700 Кбит/сек
Аудио Rus: AC3, 48,0 kHz, 2 ch, 192 Кбит/сек
Аудио Eng: AC3, 48,0 kHz, 2 ch, 192 Кбит/сек
скриншот  скриншот  скриншот  скриншот  

Общее
Полное имя : D:\Andor.S01E01.WEB-DLRip.LostFilm.RGzsRutracker.[Wentworth_Miller].avi
Формат : AVI
Формат/Информация : Audio Video Interleave
Размер файла : 588 Мбайт
Продолжительность : 39 м. 10 с.
Общий поток : 2 098 Кбит/сек
Программа кодирования : VirtualDubMod 1.5.10.3 | www.virtualdub-fr.org || (build 2550/release)
Библиотека кодирования : VirtualDubMod build 2550/release

Видео
Идентификатор : 0
Формат : MPEG-4 Visual
Профиль формата : Advanced [email protected]
Настройки формата : BVOP1 / Custom Matrix
Параметр BVOP формата : 1
Параметр QPel формата : Нет
Параметр GMC формата : Без точки перехода
Параметр матрицы формата : Выборочная
Идентификатор кодека : XVID
Идентификатор кодека/Подсказка : XviD
Продолжительность : 39 м. 10 с.
Битрейт : 1 700 Кбит/сек
Ширина : 720 пикселей
Высота : 304 пикселя
Соотношение сторон : 2,35:1
Частота кадров : 24,000 кадра/сек
Цветовое пространство : YUV
Субдискретизация насыщенности : 4:2:0
Битовая глубина : 8 бит
Тип развёртки : Прогрессивная
Метод сжатия : С потерями
Бит/(Пиксели*Кадры) : 0.324
Размер потока : 476 Мбайт (81%)
Библиотека кодирования : XviD 69

Аудио #1
Идентификатор : 1
Формат : AC-3
Формат/Информация : Audio Coding 3
Коммерческое название : Dolby Digital
Идентификатор кодека : 2000
Продолжительность : 39 м. 10 с.
Вид битрейта : Постоянный
Битрейт : 192 Кбит/сек
Каналы : 2 канала
Channel layout : L R
Частота : 48,0 КГц
Частота кадров : 31,250 кадров/сек (1536 SPF)
Метод сжатия : С потерями
Размер потока : 53,8 Мбайт (9%)
Выравнивание : Разделение по промежуткам
Продолжительность промежутка : 42 мс. (1,00 видеокадр)
Время предзагрузки промежутка : 500 мс.
Service kind : Complete Main

Аудио #2
Идентификатор : 2
Формат : AC-3
Формат/Информация : Audio Coding 3
Коммерческое название : Dolby Digital
Идентификатор кодека : 2000
Продолжительность : 39 м. 10 с.
Вид битрейта : Постоянный
Битрейт : 192 Кбит/сек
Каналы : 2 канала
Channel layout : L R
Частота : 48,0 КГц
Частота кадров : 31,250 кадров/сек (1536 SPF)
Метод сжатия : С потерями
Размер потока : 53,8 Мбайт (9%)
Выравнивание : Разделение по промежуткам
Продолжительность промежутка : 42 мс. (1,00 видеокадр)
Время предзагрузки промежутка : 500 мс.
Service kind : Complete Main

Когда раздача ведётся путём добавления новых серий, при каждом добавлении создётся новый торрент. Чтобы начать докачку новой серии, пользователям необходимо сделать следующее:
(1) остановить скачивание,
(2) удалить старый торрент у себя из клиента (старые серии удалять не надо),
(3) скачать новый торрент и запустить его у себя в клиенте вместо старого, при этом указать клиенту путь в старую папку, куда и должно происходить скачивание новых серий.
Ваш клиент при этом должен произвести хеширование (проверку) старой папки (если не производит сам - помогите ему сделать это), и будет докачивать только те серии, которых у вас ещё нет. Старые серии при этом не удаляются, а продолжают раздаваться!
Eсли вы уже удалили старые серии, то предотвратить повторную закачку старых серий можно, отжав галочку в соответсвующих местах при запуске нового торрента. По возможности, желательно не удалять старые серии как можно дольше, чтобы релизёр не столько продолжал раздавать старые серии, а смог сконцентрироваться на новых.




Скачать Андор через торрент https://i4-imageban-ru.translate.goog/out/2022/09/24/e01a9e16121eea1aa867f036ec176fae.png Скачать, смотреть онлайн Андор бесплантно в хорошем качестве Описание: Действие происходит за пять лет до событий фильма «Изгой-один» и рассказывает о группе персонажей в период формирования ... 6.6 10 21
Торрент: Зарегистрирован [2022-11-27 13:52] · скачан: 22 раз
Статус: √ проверено
Размер: 8.14 GB
Как cкачать? Как скачать Андор через торрент | UTorrent

% Раздел Тема Автор DL S | L
Зарубежные сериалы [ 14.2 GB ] Андор / Andor / Сезон: 1 / Серии: 1-12 из 12 | DUB | 720p bober100 Скачать
5 | 3
Зарубежные сериалы [ 6.72 GB ] Андор / Andor / Сезон: 1 / Серии: 1-12 из 12 + Спецвыпуск | HDRezka Studio | DLRip bober100 Скачать
18 | 3
Зарубежные сериалы [ 22.55 GB ] Андор / Andor / Сезон: 1 / Серии: 1-12 из 12 | DUB | 1080p bober100 Скачать
12 | 8
Зарубежные сериалы [ 29.91 GB ] Андор / Andor / Сезон: 1 / Серии: 1-12 из 12 | MVO | 1080p bober100 Скачать
8 | 9
Зарубежные сериалы [ 10.73 GB ] Андор / Andor / Сезон: 1 / Серии: 1-7 из 12 | TVShows | 1080p killermax2013 Скачать
1 | 3
Зарубежные сериалы [ 6.67 GB ] Андор / Andor / Сезон: 1 / Серии: 1-12 из 12 | DUB | DLRip bober100 Скачать
5 | 5
Зарубежные сериалы [ 277 MB ] Андор / Andor / Сезон: 1 / Серии: 0- из 12 | HDRezka Studio | 720p bober100 Скачать
1 | 0

28-11-2019 20:33  


Отключить вcю реклaмy на сайте, в т.ч. и в плеере онлайн просмотра!

    Дорогой пользователь! Огромная просьба, поблагодарите релизера, оцените раздачу и оставьте свои комментарий, если Вы скачали Андор через торрент бесплатно!!
    Комментировать посты могут только пользователи прошедшие не сложную регистрацию
    Показать сообщения:    


    Андор через торрент
    Скачать бесплатно Андор
    Андор скачать торрент
    Андор смотреть онлайн
    Cкачать фильм Андор бесплатно
    Андор скачать торрент в хорошем качестве
    Андор смотреть онлайн бесплатно в хорошем качестве
    Вы не можете начинать темы
    Вы не можете отвечать на сообщения
    Вы не можете редактировать свои сообщения
    Вы не можете удалять свои сообщения
    Вы не можете голосовать в опросах
    Вы не можете прикреплять файлы к сообщениям
    Вы можете скачивать файлы
    Андор / Andor / Сезон: 1 / Серии: 0-12 из 12 [2022, Фантастика, боевик, триллер, драма, приключения, WEB-DLRip] MVO [LostFilm] смотреть онлайн, скачать торрент picoco.icu