Достать ножи: Стеклянная луковица

MVO

Добыча

Дубляж

Уэнсдэй

1 сезон

Тор

Дубляж

13 клиническая

1 сезон

Жестокая ночь

MVO

Одни из нас

1 сезон

Deluxe

pack

Рекомендуем

30

Пиратка

ВАЖНО

ВАЖНО

Ghostwire

Пиратка

jed

RePack

nioh2

RePack

RDR2

RePack

NEED FOR SPEED™ PAYBACK

RePack

скачать торрент

Кинопоиск HD

Острые козырьки 6 сезон

6 сезон

FAR CRY 6

RePack

скачать торрент

Лицензия

скачать торрент

MVO

1

1 сезон

скачать торрент

1 сезон

скачать торрент

Лицензия

  

Андор / Andor / Сезон: 1 / Серии: 1-12 из 12 (Бенджамин Карон, Тоби Хэйнс, Сюзанна Уайт) [2022, Фантастика, боевик, триллер, драма, приключения, WEB-DL 1080p] 3xMVO (rus, ukr)

Андор через торрент pb.wtf

Раздают: 8 [ 354 KB/s ] Качают: 1 [ 0 KB/s ]
Размер: 29.91 GB | Добавлен: 2 мес. 8 д. назад | Торрент скачан:116 раз
Смотреть онлайн | Скачать | Поддержите нас   

26-09-2022 13:18 Андор Скачать торрент  

Андор | Andor
«---»

Год выпуска: 2022
Страна: США
Выпущено: Lucasfilm
Жанр: Фантастика, боевик, триллер, драма, приключения
Продолжительность: ~ 00:39:00
Перевод:
Профессиональный (многоголосый) | NewComers
Профессиональный (многоголосый) | HDRezka
Профессиональный (многоголосый) | LostFilm
Субтитры: Русские (Forced, Full), английские (SDH), немецкие, французские, итальянские, испанские, голландские, португальские

Режиссер: Бенджамин Карон, Тоби Хэйнс, Сюзанна Уайт

rating

В ролях: Диего Луна (Diego Luna), Женевьев О’Рейли (Genevieve O'Reilly), Алекс Фернс (Alex Ferns), Уилф Сколдинг (Wilf Scolding), Нуф Макьюэн (Noof Ousellam), Адриа Архона (Adria Arjona), Клеменс Шик (Clemens Schick), Энтон Саундерс (Anton Valensi), Тим Фарадей (Tim Faraday), Ли Бордман (Lee Boardman), Стивен Уайт (Stephen Wight)

Описание: Действие происходит за пять лет до событий фильма «Изгой-один» и рассказывает о группе персонажей в период формирования Повстанческого альянса в целях борьбы против Галактической Империи. Один из таких персонажей — Кассиан Андор, вор, который становится революционером и в итоге присоединяется к сопротивлению.

Качество: WEB-DL 1080p
Формат: MKV

Видео: MPEG-4 AVC, 1920x804 (2,40:1), ~ 5430 Kbps, 24.000 fps
Аудио Rus 1: AC3, 48 kHz, 6 ch, 448 kbps - Rus (NewComers)
Аудио Rus 2: AC3, 48 kHz, 6 ch, 448 kbps - Rus (HDRezka)
Аудио Rus 3: AC3, 48 kHz, 2 ch, 384 kbps - Rus (Lostfilm)
Аудио Ukr 4: AC3, 48 kHz, 6 ch, 384 kbps - Ukr
Аудио Eng 5: AC3, 48 kHz, 6 ch, 640 kbps - Eng
скриншот  скриншот  скриншот  скриншот  скриншот  скриншот  

Общее
Уникальный идентификатор : 179970837998510633821669338934320121905 (0x87651F62D489BC39BE43CE70A1D14831)
Полное имя : C:Андор. Сериал. 2022. EniaHD (WEB-DLRip 1080p)\Star.Wars.Andor.s01e01. Касса.mkv
Формат : Matroska
Версия формата : Version 2
Размер файла : 2,16 Гбайт
Продолжительность : 39 м. 10 с.
Режим общего битрейта : Переменный
Общий поток : 7 891 Кбит/сек
Название фильма : Star.Wars.Andor.S01E01.Kassa.WEB-DLRip [email protected]
Дата кодирования : UTC 2022-09-26 11:57:03
Программа кодирования : mkvmerge v6.9.1 ('Blue Panther') 32bit built on Apr 18 2014 18:15:44
Библиотека кодирования : libebml v1.3.0 + libmatroska v1.4.1
Обложка : Yes
Attachments : Cover_Andor_1.jpg

Видео
Идентификатор : 1
Формат : AVC
Формат/Информация : Advanced Video Codec
Профиль формата : [email protected]
Настройки формата : CABAC / 4 Ref Frames
Параметр CABAC формата : Да
Параметр RefFrames формата : 4 кадра
Идентификатор кодека : V_MPEG4/ISO/AVC
Продолжительность : 39 м. 10 с.
Вид битрейта : Переменный
Битрейт : 5 430 Кбит/сек
Максимальный битрейт : 15,0 Мбит/сек
Ширина : 1 920 пикселей
Высота : 804 пикселя
Соотношение сторон : 2,40:1
Режим частоты кадров : Постоянный
Частота кадров : 24,000 кадра/сек
Цветовое пространство : YUV
Субдискретизация насыщенности : 4:2:0
Битовая глубина : 8 бит
Тип развёртки : Прогрессивная
Бит/(Пиксели*Кадры) : 0.147
Размер потока : 1,49 Гбайт (69%)
Библиотека кодирования : x264 core 157 r2935 545de2f
Настройки программы : cabac=1 / ref=4 / deblock=1:-1:-1 / analyse=0x3:0x113 / me=umh / subme=9 / psy=1 / psy_rd=1.00:0.15 / mixed_ref=1 / me_range=24 / chroma_me=1 / trellis=2 / 8x8dct=1 / cqm=0 / deadzone=21,11 / fast_pskip=0 / chroma_qp_offset=-3 / threads=18 / lookahead_threads=3 / sliced_threads=0 / nr=0 / decimate=1 / interlaced=0 / bluray_compat=0 / constrained_intra=0 / bframes=8 / b_pyramid=2 / b_adapt=2 / b_bias=0 / direct=3 / weightb=1 / open_gop=0 / weightp=2 / keyint=120 / keyint_min=61 / scenecut=40 / intra_refresh=0 / rc_lookahead=120 / rc=crf / mbtree=1 / crf=18.0 / qcomp=0.60 / qpmin=0 / qpmax=69 / qpstep=4 / vbv_maxrate=15000 / vbv_bufsize=31250 / crf_max=0.0 / nal_hrd=vbr / filler=0 / ip_ratio=1.40 / aq=3:1.00
Язык : English
Default : Да
Forced : Нет
Цветовой диапазон : Limited
Основные цвета : BT.709
Характеристики трансфера : BT.709
Коэффициенты матрицы : BT.709

Аудио #1
Идентификатор : 2
Формат : AC-3
Формат/Информация : Audio Coding 3
Коммерческое название : Dolby Digital
Идентификатор кодека : A_AC3
Продолжительность : 39 м. 10 с.
Вид битрейта : Постоянный
Битрейт : 448 Кбит/сек
Каналы : 6 каналов
Channel layout : L R C LFE Ls Rs
Частота : 48,0 КГц
Частота кадров : 31,250 кадров/сек (1536 SPF)
Метод сжатия : С потерями
Размер потока : 126 Мбайт (6%)
Заголовок : NewComers
Язык : Russian
Service kind : Complete Main
Default : Да
Forced : Нет

Аудио #2
Идентификатор : 3
Формат : AC-3
Формат/Информация : Audio Coding 3
Коммерческое название : Dolby Digital
Идентификатор кодека : A_AC3
Продолжительность : 39 м. 10 с.
Вид битрейта : Постоянный
Битрейт : 448 Кбит/сек
Каналы : 6 каналов
Channel layout : L R C LFE Ls Rs
Частота : 48,0 КГц
Частота кадров : 31,250 кадров/сек (1536 SPF)
Метод сжатия : С потерями
Размер потока : 126 Мбайт (6%)
Заголовок : HDRezka
Язык : Russian
Service kind : Complete Main
Default : Нет
Forced : Нет

Аудио #3
Идентификатор : 4
Формат : AC-3
Формат/Информация : Audio Coding 3
Коммерческое название : Dolby Digital
Идентификатор кодека : A_AC3
Продолжительность : 39 м. 10 с.
Вид битрейта : Постоянный
Битрейт : 384 Кбит/сек
Каналы : 2 канала
Channel layout : L R
Частота : 48,0 КГц
Частота кадров : 31,250 кадров/сек (1536 SPF)
Метод сжатия : С потерями
Размер потока : 108 Мбайт (5%)
Заголовок : Lostfilm
Язык : Russian
Service kind : Complete Main
Default : Нет
Forced : Нет

Аудио #4
Идентификатор : 5
Формат : AC-3
Формат/Информация : Audio Coding 3
Коммерческое название : Dolby Digital
Идентификатор кодека : A_AC3
Продолжительность : 39 м. 10 с.
Вид битрейта : Постоянный
Битрейт : 384 Кбит/сек
Каналы : 6 каналов
Channel layout : L R C LFE Ls Rs
Частота : 48,0 КГц
Частота кадров : 31,250 кадров/сек (1536 SPF)
Метод сжатия : С потерями
Размер потока : 108 Мбайт (5%)
Язык : Ukrainian
Service kind : Complete Main
Default : Нет
Forced : Нет

Аудио #5
Идентификатор : 6
Формат : AC-3
Формат/Информация : Audio Coding 3
Коммерческое название : Dolby Digital
Идентификатор кодека : A_AC3
Продолжительность : 39 м. 10 с.
Вид битрейта : Постоянный
Битрейт : 640 Кбит/сек
Каналы : 6 каналов
Channel layout : L R C LFE Ls Rs
Частота : 48,0 КГц
Частота кадров : 31,250 кадров/сек (1536 SPF)
Метод сжатия : С потерями
Размер потока : 179 Мбайт (8%)
Язык : English
Service kind : Complete Main
Default : Нет
Forced : Нет

Текст #1
Идентификатор : 7
Формат : UTF-8
Идентификатор кодека : S_TEXT/UTF8
Идентификатор кодека/Информация : UTF-8 Plain Text
Заголовок : Forced
Язык : Russian
Default : Да
Forced : Да

Текст #2
Идентификатор : 8
Формат : UTF-8
Идентификатор кодека : S_TEXT/UTF8
Идентификатор кодека/Информация : UTF-8 Plain Text
Язык : Russian
Default : Нет
Forced : Нет

Текст #3
Идентификатор : 9
Формат : UTF-8
Идентификатор кодека : S_TEXT/UTF8
Идентификатор кодека/Информация : UTF-8 Plain Text
Заголовок : SDH
Язык : English
Default : Нет
Forced : Нет

Текст #4
Идентификатор : 10
Формат : UTF-8
Идентификатор кодека : S_TEXT/UTF8
Идентификатор кодека/Информация : UTF-8 Plain Text
Язык : German
Default : Нет
Forced : Нет

Текст #5
Идентификатор : 11
Формат : UTF-8
Идентификатор кодека : S_TEXT/UTF8
Идентификатор кодека/Информация : UTF-8 Plain Text
Язык : French
Default : Нет
Forced : Нет

Текст #6
Идентификатор : 12
Формат : UTF-8
Идентификатор кодека : S_TEXT/UTF8
Идентификатор кодека/Информация : UTF-8 Plain Text
Язык : Italian
Default : Нет
Forced : Нет

Текст #7
Идентификатор : 13
Формат : UTF-8
Идентификатор кодека : S_TEXT/UTF8
Идентификатор кодека/Информация : UTF-8 Plain Text
Язык : Spanish
Default : Нет
Forced : Нет

Текст #8
Идентификатор : 14
Формат : UTF-8
Идентификатор кодека : S_TEXT/UTF8
Идентификатор кодека/Информация : UTF-8 Plain Text
Язык : Dutch
Default : Нет
Forced : Нет

Текст #9
Идентификатор : 15
Формат : UTF-8
Идентификатор кодека : S_TEXT/UTF8
Идентификатор кодека/Информация : UTF-8 Plain Text
Язык : Portuguese
Default : Нет
Forced : Нет

Когда раздача ведётся путём добавления новых серий, при каждом добавлении создётся новый торрент. Чтобы начать докачку новой серии, пользователям необходимо сделать следующее:
(1) остановить скачивание,
(2) удалить старый торрент у себя из клиента (старые серии удалять не надо),
(3) скачать новый торрент и запустить его у себя в клиенте вместо старого, при этом указать клиенту путь в старую папку, куда и должно происходить скачивание новых серий.
Ваш клиент при этом должен произвести хеширование (проверку) старой папки (если не производит сам - помогите ему сделать это), и будет докачивать только те серии, которых у вас ещё нет. Старые серии при этом не удаляются, а продолжают раздаваться!
Eсли вы уже удалили старые серии, то предотвратить повторную закачку старых серий можно, отжав галочку в соответсвующих местах при запуске нового торрента. По возможности, желательно не удалять старые серии как можно дольше, чтобы релизёр не столько продолжал раздавать старые серии, а смог сконцентрироваться на новых.




Скачать Андор через торрент https://i4-imageban-ru.translate.goog/out/2022/09/24/e01a9e16121eea1aa867f036ec176fae.png Скачать, смотреть онлайн Андор бесплантно в хорошем качестве Описание: Действие происходит за пять лет до событий фильма «Изгой-один» и рассказывает о группе персонажей в период формирования ... 6.1 10 22
Info! Золотая раздача, скачанное не засчитывается.
Торрент: Зарегистрирован [2022-11-25 15:29] · скачан: 116 раз
Статус: √ проверено
Размер: 29.91 GB
Как cкачать? Как скачать Андор через торрент | UTorrent

% Раздел Тема Автор DL S | L
Зарубежные сериалы [ 14.2 GB ] Андор / Andor / Сезон: 1 / Серии: 1-12 из 12 | DUB | 720p bober100 Скачать
11 | 1
Зарубежные сериалы [ 6.72 GB ] Андор / Andor / Сезон: 1 / Серии: 1-12 из 12 + Спецвыпуск | HDRezka Studio | DLRip bober100 Скачать
9 | 2
Зарубежные сериалы [ 22.55 GB ] Андор / Andor / Сезон: 1 / Серии: 1-12 из 12 | DUB | 1080p bober100 Скачать
12 | 1
Зарубежные сериалы [ 10.73 GB ] Андор / Andor / Сезон: 1 / Серии: 1-7 из 12 | TVShows | 1080p killermax2013 Скачать
3 | 0
Зарубежные сериалы [ 6.67 GB ] Андор / Andor / Сезон: 1 / Серии: 1-12 из 12 | DUB | DLRip bober100 Скачать
4 | 0
Зарубежные сериалы [ 8.14 GB ] Андор / Andor / Сезон: 1 / Серии: 0-12 из 12 | LostFilm | DLRip bober100 Скачать
19 | 0
Зарубежные сериалы [ 277 MB ] Андор / Andor / Сезон: 1 / Серии: 0- из 12 | HDRezka Studio | 720p bober100 Скачать
1 | 0



Последний раз редактировалось: bober100 (2022-11-25 15:29), всего редактировалось 10 раз(а)

28-11-2019 20:33  


Отключить вcю реклaмy на сайте, в т.ч. и в плеере онлайн просмотра!

30-09-2022 14:26 Андор Скачать торрент  

классный фильм.достойный сюжет а вот актёры не все хорошо играют



    Дорогой пользователь! Огромная просьба, поблагодарите релизера, оцените раздачу и оставьте свои комментарий, если Вы скачали Андор через торрент бесплатно!!
    Комментировать посты могут только пользователи прошедшие не сложную регистрацию
    Показать сообщения:    


    Андор через торрент
    Скачать бесплатно Андор
    Андор скачать торрент
    Андор смотреть онлайн
    Cкачать фильм Андор бесплатно
    Андор скачать торрент в хорошем качестве
    Андор смотреть онлайн бесплатно в хорошем качестве
    Вы не можете начинать темы
    Вы не можете отвечать на сообщения
    Вы не можете редактировать свои сообщения
    Вы не можете удалять свои сообщения
    Вы не можете голосовать в опросах
    Вы не можете прикреплять файлы к сообщениям
    Вы можете скачивать файлы
    Андор / Andor / Сезон: 1 / Серии: 1-12 из 12 [2022, Фантастика, боевик, триллер, драма, приключения, WEB-DL 1080p] 3xMVO смотреть онлайн, скачать торрент picoco.icu