Доктор Стрэндж

Лицензия

Добыча

Дубляж

Дом дракона

1 сезон

Тор

Дубляж

В эфире

Дубляж

Там, где раки поют

MVO

Властелин колец

1 сезон

GLOBAL

pack

Рекомендуем

30

Пиратка

ВАЖНО

ВАЖНО

Ghostwire

Пиратка

jed

RePack

nioh2

RePack

RDR2

RePack

NEED FOR SPEED™ PAYBACK

RePack

скачать торрент

Кинопоиск HD

Острые козырьки 6 сезон

6 сезон

FAR CRY 6

RePack

скачать торрент

Лицензия

скачать торрент

MVO

1

1 сезон

скачать торрент

1 сезон

скачать торрент

Лицензия

  

Андор / Andor / Сезон: 1 / Серии: 1-12 из 12 (Бенджамин Карон, Тоби Хэйнс, Сюзанна Уайт) [2022, Фантастика, боевик, триллер, драма, приключения, WEB-DLRip] Дубляж [Red Head Sound]

Андор через торрент pb.wtf

Раздают: 3 [ 354 KB/s ] Качают: 7 [ 0 KB/s ]
Размер: 6.67 GB | Добавлен: 3 д. назад | Торрент скачан:13 раз
Смотреть онлайн | Скачать   

27-09-2022 17:30 Андор Скачать торрент  

Андор | Andor
«---»

Год выпуска: 2022
Страна: США
Выпущено: Lucasfilm
Жанр: Фантастика, боевик, триллер, драма, приключения
Продолжительность: ~ 00:40:00
Перевод: Дублированный | Red Head Sound
Субтитры: отсутствуют

Режиссер: Бенджамин Карон, Тоби Хэйнс, Сюзанна Уайт

rating

В ролях: Диего Луна, Женевьев О`Рейли, Алекс Фернс, Уилф Сколдинг, Нуф Макьюэн, Адриа Архона, Клеменс Шик, Энтон Саундерс, Дениз Гоф, Александр Боуман

Описание: Действие происходит за пять лет до событий фильма «Изгой-один» и рассказывает о группе персонажей в период формирования Повстанческого альянса в целях борьбы против Галактической Империи. Один из таких персонажей — Кассиан Андор, вор, который становится революционером и в итоге присоединяется к сопротивлению.

Качество: WEB-DLRip
Формат: AVI

Видео: XviD, 720x304 (2,35:1), 23.976 fps, ~1500 kbps
Аудио: 48.0 kHz, AC3 Dolby Digital, 2/0 (L,R) ch, ~ 192 kbps
скриншот  скриншот  скриншот  скриншот  

Полное имя : Andor.S01.WEB-DLRip.Дубляж.RedHeadSound\Andor.S01E01.WEB-DLRip.Дубляж.RedHeadSound.JuSSiKa.avi
Формат : AVI
Формат/Информация : Audio Video Interleave
Размер файла : 480 Мбайт
Продолжительность : 39 м. 8 с.
Общий поток : 1 715 Кбит/сек
Программа кодирования : VirtualDubMod 1.5.10.3 | www.virtualdub-fr.org || (build 2550/release)
Библиотека кодирования : VirtualDubMod build 2550/release

Видео
Идентификатор : 0
Формат : MPEG-4 Visual
Профиль формата : Advanced [email protected]
Настройки формата : BVOP1
Параметр BVOP формата : 1
Параметр QPel формата : Нет
Параметр GMC формата : Без точки перехода
Параметр матрицы формата : Default (H.263)
Идентификатор кодека : XVID
Идентификатор кодека/Подсказка : XviD
Продолжительность : 39 м. 8 с.
Битрейт : 1 513 Кбит/сек
Ширина : 720 пикселей
Высота : 304 пикселя
Соотношение сторон : 2,35:1
Частота кадров : 24,000 кадра/сек
Цветовое пространство : YUV
Субдискретизация насыщенности : 4:2:0
Битовая глубина : 8 бит
Тип развёртки : Прогрессивная
Метод сжатия : С потерями
Бит/(Пиксели*Кадры) : 0.288
Размер потока : 424 Мбайт (88%)
Библиотека кодирования : XviD 1.2.1 (UTC 2008-12-04)

Аудио
Идентификатор : 1
Формат : AC-3
Формат/Информация : Audio Coding 3
Коммерческое название : Dolby Digital
Идентификатор кодека : 2000
Продолжительность : 39 м. 8 с.
Вид битрейта : Постоянный
Битрейт : 192 Кбит/сек
Каналы : 2 канала
Channel layout : L R
Частота : 48,0 КГц
Частота кадров : 31,250 кадров/сек (1536 SPF)
Метод сжатия : С потерями
Размер потока : 53,7 Мбайт (11%)
Выравнивание : Разделение по промежуткам
Продолжительность промежутка : 42 мс. (1,00 видеокадр)
Время предзагрузки промежутка : 500 мс.
Service kind : Complete Main

Когда раздача ведётся путём добавления новых серий, при каждом добавлении создётся новый торрент. Чтобы начать докачку новой серии, пользователям необходимо сделать следующее:
(1) остановить скачивание,
(2) удалить старый торрент у себя из клиента (старые серии удалять не надо),
(3) скачать новый торрент и запустить его у себя в клиенте вместо старого, при этом указать клиенту путь в старую папку, куда и должно происходить скачивание новых серий.
Ваш клиент при этом должен произвести хеширование (проверку) старой папки (если не производит сам - помогите ему сделать это), и будет докачивать только те серии, которых у вас ещё нет. Старые серии при этом не удаляются, а продолжают раздаваться!
Eсли вы уже удалили старые серии, то предотвратить повторную закачку старых серий можно, отжав галочку в соответсвующих местах при запуске нового торрента. По возможности, желательно не удалять старые серии как можно дольше, чтобы релизёр не столько продолжал раздавать старые серии, а смог сконцентрироваться на новых.




Скачать Андор через торрент https://i4-imageban-ru.translate.goog/out/2022/09/24/e01a9e16121eea1aa867f036ec176fae.png Скачать, смотреть онлайн Андор бесплантно в хорошем качестве Описание: Действие происходит за пять лет до событий фильма «Изгой-один» и рассказывает о группе персонажей в период формирования ... 5.8 10 17
Торрент: Зарегистрирован [2022-11-26 18:53] · скачан: 13 раз
Статус: √ проверено
Размер: 6.67 GB
Как cкачать? Как скачать Андор через торрент | UTorrent

% Раздел Тема Автор DL S | L
Зарубежные сериалы [ 14.2 GB ] Андор / Andor / Сезон: 1 / Серии: 1-12 из 12 | DUB | 720p bober100 Скачать
4 | 3
Зарубежные сериалы [ 6.72 GB ] Андор / Andor / Сезон: 1 / Серии: 1-12 из 12 + Спецвыпуск | HDRezka Studio | DLRip bober100 Скачать
17 | 3
Зарубежные сериалы [ 22.55 GB ] Андор / Andor / Сезон: 1 / Серии: 1-12 из 12 | DUB | 1080p bober100 Скачать
12 | 8
Зарубежные сериалы [ 29.91 GB ] Андор / Andor / Сезон: 1 / Серии: 1-12 из 12 | MVO | 1080p bober100 Скачать
6 | 8
Зарубежные сериалы [ 10.73 GB ] Андор / Andor / Сезон: 1 / Серии: 1-7 из 12 | TVShows | 1080p killermax2013 Скачать
1 | 3
Зарубежные сериалы [ 8.14 GB ] Андор / Andor / Сезон: 1 / Серии: 0-12 из 12 | LostFilm | DLRip bober100 Скачать
8 | 4
Зарубежные сериалы [ 277 MB ] Андор / Andor / Сезон: 1 / Серии: 0- из 12 | HDRezka Studio | 720p bober100 Скачать
1 | 0

28-11-2019 20:33  


Отключить вcю реклaмy на сайте, в т.ч. и в плеере онлайн просмотра!

    Дорогой пользователь! Огромная просьба, поблагодарите релизера, оцените раздачу и оставьте свои комментарий, если Вы скачали Андор через торрент бесплатно!!
    Комментировать посты могут только пользователи прошедшие не сложную регистрацию
    Показать сообщения:    


    Андор через торрент
    Скачать бесплатно Андор
    Андор скачать торрент
    Андор смотреть онлайн
    Cкачать фильм Андор бесплатно
    Андор скачать торрент в хорошем качестве
    Андор смотреть онлайн бесплатно в хорошем качестве
    Вы не можете начинать темы
    Вы не можете отвечать на сообщения
    Вы не можете редактировать свои сообщения
    Вы не можете удалять свои сообщения
    Вы не можете голосовать в опросах
    Вы не можете прикреплять файлы к сообщениям
    Вы можете скачивать файлы
    Андор / Andor / Сезон: 1 / Серии: 1-12 из 12 [2022, Фантастика, боевик, триллер, драма, приключения, WEB-DLRip] Дубляж [Red Head Sound] смотреть онлайн, скачать торрент picoco.icu