Доктор Стрэндж

Лицензия

Добыча

Дубляж

Дом дракона

1 сезон

Тор

Дубляж

В эфире

Дубляж

Там, где раки поют

MVO

Властелин колец

1 сезон

GLOBAL

pack

Рекомендуем

30

Пиратка

ВАЖНО

ВАЖНО

Ghostwire

Пиратка

jed

RePack

nioh2

RePack

RDR2

RePack

NEED FOR SPEED™ PAYBACK

RePack

скачать торрент

Кинопоиск HD

Острые козырьки 6 сезон

6 сезон

FAR CRY 6

RePack

скачать торрент

Лицензия

скачать торрент

MVO

1

1 сезон

скачать торрент

1 сезон

скачать торрент

Лицензия

  

Бандит / Bandit (Аллан Ангар) [2022, Триллер, драма, криминал, WEB-DL 1080p] MVO [Jaskier]

Бандит через торрент pb.wtf

Раздают: 9 [ 104 KB/s ]
Размер: 9.49 GB | Добавлен: 2 мес. 1 д. назад | Торрент скачан:327 раз
Смотреть онлайн | Скачать   

28-09-2022 17:23 Бандит Скачать торрент  

Бандит
Bandit

Год выпуска: 2022
Страна: Канада
Выпущено: Yale Productions, BondIt Media Capital, Buffalo 8 Productions
Жанр: Триллер, драма, криминал
Продолжительность: 02:05:49
Перевод: Профессиональный (многоголосый) | Jaskier
Субтитры: Aнглийские

Режиссер: Аллан Ангар

rating

В ролях: Мэл Гибсон, Элиша Катберт, Оливия д’Або, Джош Дюамель, Нестор Карбонелл, Рэйчел Маркариан, Хейли Уэбб, Майкл Х. Коул, Клер Бронсон, Свен Теммел, Лесли Стрэттон, Кэмерон Худ, Dayna Beilenson, Клэйтон Ланди, Селеста Фианна

Описание: Гилберту Галвану-младшему удается сбежать из американской тюрьмы и перебраться в Канаду. Влюбившись в соцработницу Андреа, он решает начать грабить банки, чтобы она ни в чем не нуждалась. Вести двойную жизнь оказывается непросто, но сначала у опытного грабителя мастерски получается заметать следы.

Качество: WEB-DL 1080p
Формат: MKV

Видео: MPEG-4 AVC, 10.0 Mбит/с, 1916x800
Аудио #1: AC3, 6 ch, 384 Кбит/с | RUS |
Аудио #2: AC3, 6 ch, 384 Кбит/с | ENG |
скриншот  скриншот  скриншот  скриншот  скриншот  

General
Unique ID: 326702254650562480030035604701306493602 (0xF5C890C5765381B32AE578E0916D1AA2)
Complete name: E:TorrentsBandit.2022.1080p_от New-Team_JNS82.mkv
Format: Matroska
Format version: Version 4
File size: 9.49 GiB
Duration: 2 h 5 min
Overall bit rate: 10.8 Mb/s
Movie name: Bandit.2022.1080p_от New-Team_JNS82
Encoded date: UTC 2022-09-28 14:47:48
Writing application: mkvmerge v59.0.0 ('Shining Star') 64-bit
Writing library: libebml v1.4.2 + libmatroska v1.6.4

Video
ID: 1
Format: AVC
Format/Info: Advanced Video Codec
Format profile: [email protected]
Format settings: CABAC / 5 Ref Frames
Format settings, CABAC: Yes
Format settings, Reference: 5 frames
Codec ID: V_MPEG4/ISO/AVC
Duration: 2 h 5 min
Bit rate: 10.0 Mb/s
Width: 1 916 pixels
Height: 800 pixels
Display aspect ratio: 2.40:1
Frame rate mode: Constant
Frame rate: 23.976 (24000/1001) FPS
Color space: YUV
Chroma subsampling: 4:2:0
Bit depth: 8 bits
Scan type: Progressive
Bits/(Pixel*Frame): 0.273
Stream size: 8.82 GiB (93%)
Language: English
Default: Yes
Forced: No
Color range: Limited
Color primaries: BT.709
Transfer characteristics: BT.709
Matrix coefficients: BT.709

Audio #1
ID: 2
Format: AC-3
Format/Info: Audio Coding 3
Commercial name: Dolby Digital
Codec ID: A_AC3
Duration: 2 h 5 min
Bit rate mode: Constant
Bit rate: 384 kb/s
Channel(s): 6 channels
Channel layout: L R C LFE Ls Rs
Sampling rate: 48.0 kHz
Frame rate: 31.250 FPS (1536 SPF)
Compression mode: Lossy
Stream size: 346 MiB (4%)
Title: MVO - Jaskier
Language: Russian
Service kind: Complete Main
Default: Yes
Forced: No

Audio #2
ID: 3
Format: AC-3
Format/Info: Audio Coding 3
Commercial name: Dolby Digital
Codec ID: A_AC3
Duration: 2 h 5 min
Bit rate mode: Constant
Bit rate: 384 kb/s
Channel(s): 6 channels
Channel layout: L R C LFE Ls Rs
Sampling rate: 48.0 kHz
Frame rate: 31.250 FPS (1536 SPF)
Compression mode: Lossy
Stream size: 346 MiB (4%)
Title: Canadian
Language: English
Service kind: Complete Main
Default: No
Forced: No

Text #1
ID: 4
Format: UTF-8
Codec ID: S_TEXT/UTF8
Codec ID/Info: UTF-8 Plain Text
Duration: 1 h 58 min
Bit rate: 75 b/s
Count of elements: 2480
Stream size: 65.6 KiB (0%)
Title: SDH
Language: English
Default: No
Forced: No

Text #2
ID: 5
Format: UTF-8
Codec ID: S_TEXT/UTF8
Codec ID/Info: UTF-8 Plain Text
Duration: 1 h 57 min
Bit rate: 69 b/s
Count of elements: 2186
Stream size: 59.3 KiB (0%)
Language: English
Default: No
Forced: No

Menu
00:00:00.000: Chapter 01
00:08:31.469: Chapter 02
00:23:11.016: Chapter 03
00:38:34.439: Chapter 04
00:47:31.017: Chapter 05
00:59:50.757: Chapter 06
01:09:32.339: Chapter 07
01:19:08.123: Chapter 08
01:30:04.237: Chapter 09
01:39:37.727: Chapter 10
01:49:05.086: Chapter 11
01:58:21.101: Chapter 12




Скачать Бандит через торрент https://i120.fastpic.org/big/2022/0928/8d/9610a133753a38b902c899e96f4e788d.jpg Скачать, смотреть онлайн Бандит бесплантно в хорошем качестве Описание: Гилберту Галвану-младшему удается сбежать из американской тюрьмы и перебраться в Канаду. Влюбившись в соцработницу Андреа, он ... 10 10 11
Торрент: Зарегистрирован [2022-09-28 17:23] · скачан: 327 раз
Статус: √ проверено
Размер: 9.49 GB
Как cкачать? Как скачать Бандит через торрент | UTorrent

% Раздел Тема Автор DL S | L
Фильмы 2022 [DVDrip, WEB-DLRip, HDrip] (DUB, MVO) [ 2.11 GB ] Бандит / Bandit | DUB | DLRip-AVC bober100 Скачать
23 | 1
Фильмы 2022 [DVDrip, WEB-DLRip, HDrip] (DUB, MVO) [ 2.18 GB ] Бандит / Bandit | DUB | DLRip bober100 Скачать
13 | 2
Фильмы (HD 720p, 1080p) (48-60 fps) [ 4.43 GB ] Бандит / Bandit | Jaskier | DLRip 720p / 60 FPS slaventi-69 Скачать
11 | 1

28-11-2019 20:33  


Отключить вcю реклaмy на сайте, в т.ч. и в плеере онлайн просмотра!

    Дорогой пользователь! Огромная просьба, поблагодарите релизера, оцените раздачу и оставьте свои комментарий, если Вы скачали Бандит через торрент бесплатно!!
    Комментировать посты могут только пользователи прошедшие не сложную регистрацию
    Показать сообщения:    


    Бандит через торрент
    Скачать бесплатно Бандит
    Бандит скачать торрент
    Бандит смотреть онлайн
    Cкачать фильм Бандит бесплатно
    Бандит скачать торрент в хорошем качестве
    Бандит смотреть онлайн бесплатно в хорошем качестве
    Вы не можете начинать темы
    Вы не можете отвечать на сообщения
    Вы не можете редактировать свои сообщения
    Вы не можете удалять свои сообщения
    Вы не можете голосовать в опросах
    Вы не можете прикреплять файлы к сообщениям
    Вы можете скачивать файлы
    Бандит / Bandit [2022, Триллер, драма, криминал, WEB-DL 1080p] MVO [Jaskier] смотреть онлайн, скачать торрент picoco.icu