Доктор Стрэндж

Лицензия

Добыча

Дубляж

Дом дракона

1 сезон

Тор

Дубляж

В эфире

Дубляж

Там, где раки поют

MVO

Властелин колец

1 сезон

GLOBAL

pack

Рекомендуем

30

Пиратка

ВАЖНО

ВАЖНО

Ghostwire

Пиратка

jed

RePack

nioh2

RePack

RDR2

RePack

NEED FOR SPEED™ PAYBACK

RePack

скачать торрент

Кинопоиск HD

Острые козырьки 6 сезон

6 сезон

FAR CRY 6

RePack

скачать торрент

Лицензия

скачать торрент

MVO

1

1 сезон

скачать торрент

1 сезон

скачать торрент

Лицензия

  

Аббатство Даунтон 2 / Downton Abbey: A New Era (Саймон Кёртис) [2022, Драма, мелодрама, BDRip 1080p] Дубляж [Лицензия]

Аббатство Даунтон 2 через торрент pb.wtf

Раздают: 2 [ 2 KB/s ]
Размер: 11.35 GB | Добавлен: 2 мес. 1 д. назад | Торрент скачан:77 раз
Смотреть онлайн | Скачать   

28-09-2022 18:32 Аббатство Даунтон 2 Скачать торрент  

Аббатство Даунтон 2
Downton Abbey: A New Era

Год выпуска: 2022
Страна: Великобритания, США
Студия: Carnival Films, Universal Pictures
Жанр: Драма, мелодрама
Продолжительность: 02:04:32
Перевод: Дублированный | Лицензия
Субтитры: Русские (Forced, full), английские

Режиссер: Саймон Кёртис

rating

В ролях: Аллен Лич, Таппенс Мидлтон, Эва Саммс, Карина Сэммс, Имелда Стонтон, Фифи Харт, Оливер Баркер, Зак Баркер, Элизабет МакГоверн, Хью Бонневилль

Описание: Вдовствующая графиня Вайолет Кроули получает в наследство роскошную виллу на юге Франции, и вся семья отправляется в грандиозное путешествие, чтобы раскрыть тайны новых владений. Тем временем в аббатстве Даунтон начинаются съёмки художественного фильма, и обитателям поместья приходится смириться с тем, что в Даунтон проник современный мир.

Качество: BDRip 1080p
Формат: MKV

Видео: MPEG-4 AVC, 1920x804, 12.2 Mbit/s, 23.976 fps
Аудио #01: 48 kHz, AC3, 5.1, 384 Kbps | Дублированный | Лицензия | RUS |
Аудио #02: 48 kHz, AC3, 5.1, 448 Kbps | Оригинал | ENG |
скриншот  скриншот  скриншот  скриншот  скриншот  скриншот  

General
Unique ID : 69137864345411551254416185334772538833 (0x340377E40A85A8A2124F4355C2701DD1)
Complete name : E:\Video1\Downton.Abbey.A.New.Era.2022.BDRip.1080p.seleZen.mkv
Format : Matroska
Format version : Version 4
File size : 11.4 GiB
Duration : 2 h 4 min
Overall bit rate : 13.1 Mb/s
Movie name : Downton Abbey A New Era 2022 from seleZen
Encoded date : UTC 2022-09-28 18:12:21
Writing application : mkvmerge v59.0.0 ('Shining Star') 64-bit
Writing library : libebml v1.4.2 + libmatroska v1.6.4

Video
ID : 1
Format : AVC
Format/Info : Advanced Video Codec
Format profile : [email protected]
Format settings : CABAC / 5 Ref Frames
Format settings, CABAC : Yes
Format settings, Reference : 5 frames
Codec ID : V_MPEG4/ISO/AVC
Duration : 2 h 4 min
Bit rate : 12.2 Mb/s
Width : 1 920 pixels
Height : 804 pixels
Display aspect ratio : 2.40:1
Frame rate mode : Constant
Frame rate : 23.976 (24000/1001) FPS
Color space : YUV
Chroma subsampling : 4:2:0
Bit depth : 8 bits
Scan type : Progressive
Bits/(Pixel*Frame) : 0.330
Stream size : 10.6 GiB (94%)
Writing library : x264 core 164 r3085+55M seleZen t_mod_New [(8 & 10)[email protected] X86_64]
Encoding settings : cabac=1 / ref=5 / deblock=1:-2:-2 / analyse=0x3:0x133 / me=umh / subme=10 / psy=1 / fade_compensate=0.00 / psy_rd=1.03:0.02 / mixed_ref=1 / me_range=32 / chroma_me=1 / trellis=2 / 8x8dct=1 / cqm=0 / deadzone=21,11 / fast_pskip=0 / chroma_qp_offset=-3 / threads=25 / lookahead_threads=4 / sliced_threads=0 / nr=0 / decimate=0 / interlaced=0 / bluray_compat=0 / constrained_intra=0 / fgo=0 / bframes=9 / b_pyramid=2 / b_adapt=2 / b_bias=0 / direct=3 / weightb=1 / open_gop=0 / weightp=2 / keyint=240 / keyint_min=23 / scenecut=40 / intra_refresh=0 / rc_lookahead=60 / rc=2pass / mbtree=0 / bitrate=12218 / ratetol=1.0 / qcomp=0.60 / qpmin=0:0:0 / qpmax=51:51:51 / qpstep=4 / cplxblur=20.0 / qblur=0.5 / vbv_maxrate=50000 / vbv_bufsize=62500 / nal_hrd=none / filler=0 / ip_ratio=1.40 / pb_ratio=1.30 / aq=3:0.80 / aq-sensitivity=10.00 / aq-factor=1.00:1.00:1.00 / aq2=0 / aq3=0
Language : English
Default : Yes
Forced : No

Audio #1
ID : 2
Format : AC-3
Format/Info : Audio Coding 3
Commercial name : Dolby Digital
Codec ID : A_AC3
Duration : 2 h 4 min
Bit rate mode : Constant
Bit rate : 384 kb/s
Channel(s) : 6 channels
Channel layout : L R C LFE Ls Rs
Sampling rate : 48.0 kHz
Frame rate : 31.250 FPS (1536 SPF)
Compression mode : Lossy
Stream size : 342 MiB (3%)
Title : Дубляж
Language : Russian
Service kind : Complete Main
Default : Yes
Forced : Yes

Audio #2
ID : 3
ID in the original source m : 4352 (0x1100)
Format : AC-3
Format/Info : Audio Coding 3
Commercial name : Dolby Digital
Codec ID : A_AC3
Duration : 2 h 4 min
Bit rate mode : Constant
Bit rate : 448 kb/s
Channel(s) : 6 channels
Channel layout : L R C LFE Ls Rs
Sampling rate : 48.0 kHz
Frame rate : 31.250 FPS (1536 SPF)
Compression mode : Lossy
Stream size : 399 MiB (3%)
Title : Original
Language : English
Service kind : Complete Main
Default : No
Forced : No
Original source medium : Blu-ray

Text #1
ID : 4
Format : UTF-8
Codec ID : S_TEXT/UTF8
Codec ID/Info : UTF-8 Plain Text
Duration : 1 h 16 min
Bit rate : 0 b/s
Frame rate : 0.003 FPS
Count of elements : 13
Stream size : 498 Bytes (0%)
Title : Forced
Language : Russian
Default : Yes
Forced : Yes

Text #2
ID : 5
Format : UTF-8
Codec ID : S_TEXT/UTF8
Codec ID/Info : UTF-8 Plain Text
Duration : 1 h 59 min
Bit rate : 120 b/s
Frame rate : 0.280 FPS
Count of elements : 2005
Stream size : 105 KiB (0%)
Title : Full
Language : Russian
Default : No
Forced : No

Text #3
ID : 6
Format : UTF-8
Codec ID : S_TEXT/UTF8
Codec ID/Info : UTF-8 Plain Text
Duration : 1 h 59 min
Bit rate : 89 b/s
Frame rate : 0.305 FPS
Count of elements : 2186
Stream size : 78.6 KiB (0%)
Title : SDH
Language : English
Default : No
Forced : No

Menu
00:00:00.000 : Chapter 01
00:08:42.271 : Chapter 02
00:18:59.179 : Chapter 03
00:28:49.060 : Chapter 04
00:38:33.519 : Chapter 05
00:43:06.333 : Chapter 06
00:49:23.335 : Chapter 07
00:56:17.415 : Chapter 08
01:02:20.737 : Chapter 09
01:07:46.353 : Chapter 10
01:15:36.532 : Chapter 11
01:20:57.769 : Chapter 12
01:27:59.524 : Chapter 13
01:32:38.761 : Chapter 14
01:37:25.631 : Chapter 15
01:43:31.997 : Chapter 16
01:49:05.163 : Chapter 17
01:51:55.834 : Chapter 18
01:59:04.470 : Chapter 19
02:00:14.957 : Chapter 20




Скачать Аббатство Даунтон 2 через торрент https://i120.fastpic.org/big/2022/0928/2d/3f7b1423be9c3a45e2a7cb3b9e4a7a2d.jpg Скачать, смотреть онлайн Аббатство Даунтон 2 бесплантно в хорошем качестве Описание: Вдовствующая графиня Вайолет Кроули получает в наследство роскошную виллу на юге Франции, и вся семья отправляется в грандиозное ... 10 10 7
Торрент: Зарегистрирован [2022-09-28 18:32] · скачан: 77 раз
Статус: √ проверено
Размер: 11.35 GB
Как cкачать? Как скачать Аббатство Даунтон 2 через торрент | UTorrent

% Раздел Тема Автор DL S | L
Фильмы 2022 [DVDrip, WEB-DLRip, HDrip] (DUB, MVO) [ 2.13 GB ] Аббатство Даунтон 2 / Downton Abbey: A New Era | Лицензия | BDRip bober100 Скачать
3 | 0
Фильмы 2022 [DVDrip, WEB-DLRip, HDrip] (DUB, MVO) [ 1.46 GB ] Аббатство Даунтон 2 / Downton Abbey: A New Era | Лицензия | BDRip bober100 Скачать
2 | 0
Ultra HD (UHD: 2K, 4K, 8K) [ 62.5 GB ] Аббатство Даунтон 2 / Downton Abbey: A New Era | Лицензия | 2160p, (Dolby Vision Profile 8 bober100 Скачать
1 | 0
Фильмы (Blu-ray, BD-Remux, HDDVD) [ 31.39 GB ] Аббатство Даунтон 2 / Downton Abbey: A New Era | Лицензия | BD Remux 1080p bober100 Скачать
1 | 0
Фильмы 2022 [DVDrip, WEB-DLRip, HDrip] (DUB, MVO) [ 2.13 GB ] Аббатство Даунтон 2 / Downton Abbey: A New Era | Jaskier | BDRip bober100 Скачать
1 | 0
Фильмы 2022 [DVDrip, WEB-DLRip, HDrip] (DUB, MVO) [ 1.46 GB ] Аббатство Даунтон 2 / Downton Abbey: A New Era | Jaskier | BDRip bober100 Скачать
2 | 0
T Фильмы 2022 [DVDrip, WEB-DLRip, HDrip] (DUB, MVO) [ 1.95 GB ] Аббатство Даунтон 2 / Downton Abbey: A New Era | Jaskier | WEBRip-AVC Lithuania Скачать
1 | 0

28-11-2019 20:33  


Отключить вcю реклaмy на сайте, в т.ч. и в плеере онлайн просмотра!

    Дорогой пользователь! Огромная просьба, поблагодарите релизера, оцените раздачу и оставьте свои комментарий, если Вы скачали Аббатство Даунтон 2 через торрент бесплатно!!
    Комментировать посты могут только пользователи прошедшие не сложную регистрацию
    Показать сообщения:    


    Аббатство Даунтон 2 через торрент
    Скачать бесплатно Аббатство Даунтон 2
    Аббатство Даунтон 2 скачать торрент
    Аббатство Даунтон 2 смотреть онлайн
    Cкачать фильм Аббатство Даунтон 2 бесплатно
    Аббатство Даунтон 2 скачать торрент в хорошем качестве
    Аббатство Даунтон 2 смотреть онлайн бесплатно в хорошем качестве
    Вы не можете начинать темы
    Вы не можете отвечать на сообщения
    Вы не можете редактировать свои сообщения
    Вы не можете удалять свои сообщения
    Вы не можете голосовать в опросах
    Вы не можете прикреплять файлы к сообщениям
    Вы можете скачивать файлы
    Аббатство Даунтон 2 / Downton Abbey: A New Era [2022, Драма, мелодрама, BDRip 1080p] Дубляж [Лицензия] смотреть онлайн, скачать торрент picoco.icu