Достать ножи: Стеклянная луковица

MVO

Добыча

Дубляж

Уэнсдэй

1 сезон

Тор

Дубляж

13 клиническая

1 сезон

Жестокая ночь

MVO

Одни из нас

1 сезон

Deluxe

pack

Рекомендуем

30

Пиратка

ВАЖНО

ВАЖНО

Ghostwire

Пиратка

jed

RePack

nioh2

RePack

RDR2

RePack

NEED FOR SPEED™ PAYBACK

RePack

скачать торрент

Кинопоиск HD

Острые козырьки 6 сезон

6 сезон

FAR CRY 6

RePack

скачать торрент

Лицензия

скачать торрент

MVO

1

1 сезон

скачать торрент

1 сезон

скачать торрент

Лицензия

  

Аббатство Даунтон 2 / Downton Abbey: A New Era (Саймон Кёртис) [2022, Драма, мелодрама, UHD BDRemux 2160p, (Dolby Vision Profile 8)] Дубляж [Лицензия]

Аббатство Даунтон 2 через торрент pb.wtf

Размер: 62.5 GB | Добавлен: 4 мес. 4 д. назад | Торрент скачан:19 раз
Смотреть онлайн | Скачать | Поддержите нас   

28-09-2022 19:33 Аббатство Даунтон 2 Скачать торрент  

Аббатство Даунтон 2
Downton Abbey: A New Era

Год выпуска: 2022
Страна: Великобритания, США
Студия: Carnival Films, Universal Pictures
Жанр: Драма, мелодрама
Продолжительность: 02:04:32
Перевод: Дублированный | Лицензия
Субтитры: Русские (Forced, full), английские

Режиссер: Саймон Кёртис

rating

В ролях: Аллен Лич, Таппенс Мидлтон, Эва Саммс, Карина Сэммс, Имелда Стонтон, Фифи Харт, Оливер Баркер, Зак Баркер, Элизабет МакГоверн, Хью Бонневилль

Описание: Вдовствующая графиня Вайолет Кроули получает в наследство роскошную виллу на юге Франции, и вся семья отправляется в грандиозное путешествие, чтобы раскрыть тайны новых владений. Тем временем в аббатстве Даунтон начинаются съёмки художественного фильма, и обитателям поместья приходится смириться с тем, что в Даунтон проник современный мир.

Качество: UHD BDRemux 2160p | Dolby Vision Profile 8
Формат: MKV

Видео: 3840x2160 at 23.976 fps, MPEG-H HEVC HDR, ~ 67600 kbps avg
Аудио #01: 48 kHz, AC3, 5.1, 384 Kbps | Дублированный | Лицензия | RUS |
Аудио #02: 48 kHz, TrueHD, 7.1, 3345 Kbps | Оригинал | ENG |
Аудио #03: 48 kHz, AC3, 5.1, 448 Kbps | Оригинал | ENG |
скриншот  скриншот  скриншот  скриншот  скриншот  скриншот  

General
Unique ID : 71274341933563633863758191356485602374 (0x359EF05E590F1D14C019BCA829D48C46)
Complete name : E:\Video1\Downton.Abbey.A.New.Era.2022.BDREMUX.2160p.HDR.DVP8.seleZen.mkv
Format : Matroska
Format version : Version 4
File size : 62.5 GiB
Duration : 2 h 4 min
Overall bit rate mode : Variable
Overall bit rate : 71.8 Mb/s
Movie name : Downton Abbey A New Era 2022 from seleZen
Encoded date : UTC 2022-09-28 19:01:10
Writing application : mkvmerge v59.0.0 ('Shining Star') 64-bit
Writing library : libebml v1.4.2 + libmatroska v1.6.4

Video
ID : 1
ID in the original source m : 4117 (0x1015)
Format : HEVC
Format/Info : High Efficiency Video Coding
Format profile : Main [email protected]@High
HDR format : Dolby Vision, Version 1.0, dvhe.08.06, BL+RPU, Blu-ray compatible / SMPTE ST 2086, HDR10 compatible
Codec ID : V_MPEGH/ISO/HEVC
Duration : 2 h 4 min
Bit rate : 67.6 Mb/s
Width : 3 840 pixels
Height : 2 160 pixels
Display aspect ratio : 16:9
Frame rate mode : Constant
Frame rate : 23.976 (24000/1001) FPS
Color space : YUV
Chroma subsampling : 4:2:0 (Type 2)
Bit depth : 10 bits
Bits/(Pixel*Frame) : 0.340
Stream size : 58.8 GiB (94%)
Language : English
Default : No
Forced : No
Color range : Limited
Color primaries : BT.2020
Transfer characteristics : PQ
Matrix coefficients : BT.2020 non-constant
Mastering display color pri : Display P3
Mastering display luminance : min: 0.0001 cd/m2, max: 1000 cd/m2
Maximum Content Light Level : 985 cd/m2
Maximum Frame-Average Light : 376 cd/m2
Original source medium : Blu-ray

Audio #1
ID : 2
Format : AC-3
Format/Info : Audio Coding 3
Commercial name : Dolby Digital
Codec ID : A_AC3
Duration : 2 h 4 min
Bit rate mode : Constant
Bit rate : 384 kb/s
Channel(s) : 6 channels
Channel layout : L R C LFE Ls Rs
Sampling rate : 48.0 kHz
Frame rate : 31.250 FPS (1536 SPF)
Compression mode : Lossy
Stream size : 342 MiB (1%)
Title : Дубляж
Language : Russian
Service kind : Complete Main
Default : Yes
Forced : Yes

Audio #2
ID : 3
ID in the original source m : 4352 (0x1100)
Format : MLP FBA 16-ch
Format/Info : Meridian Lossless Packing FBA with 16-channel presentation
Commercial name : Dolby TrueHD with Dolby Atmos
Codec ID : A_TRUEHD
Duration : 2 h 4 min
Bit rate mode : Variable
Bit rate : 3 345 kb/s
Maximum bit rate : 5 250 kb/s
Channel(s) : 8 channels
Channel layout : L R C LFE Ls Rs Lb Rb
Sampling rate : 48.0 kHz
Frame rate : 1 200.000 FPS (40 SPF)
Compression mode : Lossless
Stream size : 2.91 GiB (5%)
Title : Original
Language : English
Default : No
Forced : No
Original source medium : Blu-ray
Number of dynamic objects : 11
Bed channel count : 1 channel
Bed channel configuration : LFE

Audio #3
ID : 4
ID in the original source m : 4352 (0x1100)
Format : AC-3
Format/Info : Audio Coding 3
Commercial name : Dolby Digital
Codec ID : A_AC3
Duration : 2 h 4 min
Bit rate mode : Constant
Bit rate : 448 kb/s
Channel(s) : 6 channels
Channel layout : L R C LFE Ls Rs
Sampling rate : 48.0 kHz
Frame rate : 31.250 FPS (1536 SPF)
Compression mode : Lossy
Stream size : 399 MiB (1%)
Language : English
Service kind : Complete Main
Default : No
Forced : No
Original source medium : Blu-ray

Text #1
ID : 5
Format : UTF-8
Codec ID : S_TEXT/UTF8
Codec ID/Info : UTF-8 Plain Text
Duration : 1 h 16 min
Bit rate : 0 b/s
Frame rate : 0.003 FPS
Count of elements : 13
Stream size : 498 Bytes (0%)
Title : Forced
Language : Russian
Default : Yes
Forced : Yes

Text #2
ID : 6
Format : UTF-8
Codec ID : S_TEXT/UTF8
Codec ID/Info : UTF-8 Plain Text
Duration : 1 h 59 min
Bit rate : 120 b/s
Frame rate : 0.280 FPS
Count of elements : 2005
Stream size : 105 KiB (0%)
Title : Full
Language : Russian
Default : No
Forced : No

Text #3
ID : 7
Format : UTF-8
Codec ID : S_TEXT/UTF8
Codec ID/Info : UTF-8 Plain Text
Duration : 1 h 59 min
Bit rate : 89 b/s
Frame rate : 0.305 FPS
Count of elements : 2186
Stream size : 78.6 KiB (0%)
Title : SDH
Language : English
Default : No
Forced : No

Menu
00:00:00.000 : Chapter 01
00:08:42.271 : Chapter 02
00:18:59.179 : Chapter 03
00:28:49.060 : Chapter 04
00:38:33.519 : Chapter 05
00:43:06.333 : Chapter 06
00:49:23.335 : Chapter 07
00:56:17.415 : Chapter 08
01:02:20.737 : Chapter 09
01:07:46.353 : Chapter 10
01:15:36.532 : Chapter 11
01:20:57.769 : Chapter 12
01:27:59.524 : Chapter 13
01:32:38.761 : Chapter 14
01:37:25.631 : Chapter 15
01:43:31.997 : Chapter 16
01:49:05.163 : Chapter 17
01:51:55.834 : Chapter 18
01:59:04.470 : Chapter 19
02:00:14.957 : Chapter 20




Скачать Аббатство Даунтон 2 через торрент https://i120.fastpic.org/big/2022/0928/08/546a9620f5b850cd007a5ad71eb54908.jpg Скачать, смотреть онлайн Аббатство Даунтон 2 бесплантно в хорошем качестве Описание: Вдовствующая графиня Вайолет Кроули получает в наследство роскошную виллу на юге Франции, и вся семья отправляется в грандиозное ... 10 10 3
Info! Золотая раздача, скачанное не засчитывается.
Торрент: Зарегистрирован [2022-09-28 19:33] · скачан: 19 раз
Статус: √ проверено
Размер: 62.5 GB
Как cкачать? Как скачать Аббатство Даунтон 2 через торрент | UTorrent

28-11-2019 20:33  


Отключить вcю реклaмy на сайте, в т.ч. и в плеере онлайн просмотра!

    Дорогой пользователь! Огромная просьба, поблагодарите релизера, оцените раздачу и оставьте свои комментарий, если Вы скачали Аббатство Даунтон 2 через торрент бесплатно!!
    Комментировать посты могут только пользователи прошедшие не сложную регистрацию
    Показать сообщения:    


    Аббатство Даунтон 2 через торрент
    Скачать бесплатно Аббатство Даунтон 2
    Аббатство Даунтон 2 скачать торрент
    Аббатство Даунтон 2 смотреть онлайн
    Cкачать фильм Аббатство Даунтон 2 бесплатно
    Аббатство Даунтон 2 скачать торрент в хорошем качестве
    Аббатство Даунтон 2 смотреть онлайн бесплатно в хорошем качестве
    Вы не можете начинать темы
    Вы не можете отвечать на сообщения
    Вы не можете редактировать свои сообщения
    Вы не можете удалять свои сообщения
    Вы не можете голосовать в опросах
    Вы не можете прикреплять файлы к сообщениям
    Вы можете скачивать файлы
    Аббатство Даунтон 2 / Downton Abbey: A New Era [2022, Драма, мелодрама, UHD BDRemux 2160p, ] Дубляж [Лицензия] смотреть онлайн, скачать торрент picoco.icu