Доктор Стрэндж

Лицензия

Добыча

Дубляж

Дом дракона

1 сезон

Тор

Дубляж

В эфире

Дубляж

Там, где раки поют

MVO

Властелин колец

1 сезон

GLOBAL

pack

Рекомендуем

30

Пиратка

ВАЖНО

ВАЖНО

Ghostwire

Пиратка

jed

RePack

nioh2

RePack

RDR2

RePack

NEED FOR SPEED™ PAYBACK

RePack

скачать торрент

Кинопоиск HD

Острые козырьки 6 сезон

6 сезон

FAR CRY 6

RePack

скачать торрент

Лицензия

скачать торрент

MVO

1

1 сезон

скачать торрент

1 сезон

скачать торрент

Лицензия

  

Легенды Орлёнка (Ольга Беляева) [2021, Комедия, семейный, фэнтези, WEB-DL 1080p] [IVI]

Легенды Орлёнка через торрент pb.wtf

Раздают: 2 [ 0 KB/s ]
Размер: 3.93 GB | Добавлен: 2 мес. назад | Торрент скачан:136 раз
Смотреть онлайн | Скачать   

29-09-2022 02:04 Легенды Орлёнка Скачать торрент  

Легенды Орлёнка
Год выпуска: 2021
Страна: Россия
Жанр: Комедия, семейный, фэнтези
Продолжительность: 01:28:30
Перевод: Не требуется | IVI
Субтитры: отсутствуют

Режиссер: Ольга Беляева

rating

В ролях: Елизавета Арзамасова, Алена Долголенко, Артур Котельников, Даниил Муравьев-Изотов, Ксения Петруничева, Софья Грузенко, Никита Жоричев, Елена Манакова, Маргарита Силаева, Станислав Бондаренко

Описание: Маша и четверо ребят приезжают на летний отдых во Всероссийский детский центр «Орленок» и неожиданного оказываются в самой гуще древнейшего противостояния сил зла и добра, когда девочка случайно пробуждает одного из семи каменных старцев. Теперь ребятам предстоит объединиться и пройти древний квест, чтобы разгадать тайну семи легенд и не дать владычице хаоса Эль победить. Для этого им нужно побороть свои страхи, научиться ценить дружбу и поверить в невозможное.

Качество: WEB-DL 1080p
Формат: MKV

Видео: MPEG-4 AVC, 6000 Kb/s, 1920x804, 24.000 fps
Аудио: 48 kHz, AC3 Dolby Digital, 3/2 (L, C, R, l, r) + LFE ch, ~ 348 kbps
скриншот  скриншот  скриншот  скриншот  

Complete name : Legendyi.Orlenka.2021.WEB-DL.1080p.ELEKTRI4KA.UNIONGANG.mkv
Format : Matroska
Format version : Version 4
File size : 3.93 GiB
Duration : 1 h 28 min
Overall bit rate : 6 357 kb/s
Movie name : Legendyi.Orlenka.2021.WEB-DL.1080p.ELEKTRI4KA.UNIONGANG.
Encoded date : UTC 2022-09-29 09:46:46
Writing application : mkvmerge v8.3.0 ('Over the Horizon') 32bit
Writing library : libebml v1.3.1 + libmatroska v1.4.2

Video
ID : 1
Format : AVC
Format/Info : Advanced Video Codec
Format profile : [email protected]
Format settings : CABAC / 5 Ref Frames
Format settings, CABAC : Yes
Format settings, Reference frames : 5 frames
Codec ID : V_MPEG4/ISO/AVC
Duration : 1 h 28 min
Bit rate : 6 000 kb/s
Width : 1 920 pixels
Height : 804 pixels
Display aspect ratio : 2.40:1
Frame rate mode : Constant
Frame rate : 24.000 FPS
Color space : YUV
Chroma subsampling : 4:2:0
Bit depth : 8 bits
Scan type : Progressive
Bits/(Pixel*Frame) : 0.162
Stream size : 3.69 GiB (94%)
Title : Original (IVI)
Writing library : x264 core 157
Encoding settings : cabac=1 / ref=5 / deblock=1:0:0 / analyse=0x3:0x133 / me=umh / subme=10 / psy=1 / psy_rd=1.00:0.00 / mixed_ref=1 / me_range=24 / chroma_me=1 / trellis=2 / 8x8dct=1 / cqm=0 / deadzone=21,11 / fast_pskip=1 / chroma_qp_offset=-2 / threads=25 / lookahead_threads=4 / sliced_threads=0 / nr=0 / decimate=1 / interlaced=0 / bluray_compat=0 / stitchable=1 / constrained_intra=0 / bframes=8 / b_pyramid=2 / b_adapt=2 / b_bias=0 / direct=3 / weightb=1 / open_gop=0 / weightp=2 / keyint=250 / keyint_min=24 / scenecut=40 / intra_refresh=0 / rc_lookahead=60 / rc=2pass / mbtree=1 / bitrate=6000 / ratetol=1.0 / qcomp=0.60 / qpmin=0 / qpmax=69 / qpstep=4 / cplxblur=20.0 / qblur=0.5 / vbv_maxrate=6600 / vbv_bufsize=12000 / nal_hrd=none / filler=0 / ip_ratio=1.40 / aq=1:1.00
Language : Russian
Default : Yes
Forced : Yes

Audio
ID : 2
Format : AC-3
Format/Info : Audio Coding 3
Commercial name : Dolby Digital
Codec ID : A_AC3
Duration : 1 h 28 min
Bit rate mode : Constant
Bit rate : 384 kb/s
Channel(s) : 6 channels
Channel layout : L R C LFE Ls Rs
Sampling rate : 48.0 kHz
Frame rate : 31.250 FPS (1536 SPF)
Compression mode : Lossy
Stream size : 243 MiB (6%)
Title : Original (IVI)
Language : Russian
Service kind : Complete Main
Default : Yes
Forced : Yes




Скачать Легенды Орлёнка через торрент https://i120.fastpic.org/big/2022/0929/db/9908cd51291bfb99585b7d1f28b50ddb.png Скачать, смотреть онлайн Легенды Орлёнка бесплантно в хорошем качестве Описание: Маша и четверо ребят приезжают на летний отдых во Всероссийский детский центр «Орленок» и неожиданного оказываются в самой гуще ... 7.2 10 10
Торрент: Зарегистрирован [2022-09-29 12:05] · скачан: 136 раз
Статус: √ проверено
Размер: 3.93 GB
Как cкачать? Как скачать Легенды Орлёнка через торрент | UTorrent

% Раздел Тема Автор DL S | L
Наши новые фильмы 2020 - 2022 [ 1.46 GB ] Легенды Орлёнка | IVI | DLRip bober100 Скачать
4 | 0

28-11-2019 20:33  


Отключить вcю реклaмy на сайте, в т.ч. и в плеере онлайн просмотра!

    Дорогой пользователь! Огромная просьба, поблагодарите релизера, оцените раздачу и оставьте свои комментарий, если Вы скачали Легенды Орлёнка через торрент бесплатно!!
    Комментировать посты могут только пользователи прошедшие не сложную регистрацию
    Показать сообщения:    


    Легенды Орлёнка через торрент
    Скачать бесплатно Легенды Орлёнка
    Легенды Орлёнка скачать торрент
    Легенды Орлёнка смотреть онлайн
    Cкачать фильм Легенды Орлёнка бесплатно
    Легенды Орлёнка скачать торрент в хорошем качестве
    Легенды Орлёнка смотреть онлайн бесплатно в хорошем качестве
    Вы не можете начинать темы
    Вы не можете отвечать на сообщения
    Вы не можете редактировать свои сообщения
    Вы не можете удалять свои сообщения
    Вы не можете голосовать в опросах
    Вы не можете прикреплять файлы к сообщениям
    Вы можете скачивать файлы
    Легенды Орлёнка [2021, Комедия, семейный, фэнтези, WEB-DL 1080p] [IVI] смотреть онлайн, скачать торрент picoco.icu