Доктор Стрэндж

Лицензия

Добыча

Дубляж

Дом дракона

1 сезон

Тор

Дубляж

В эфире

Дубляж

Там, где раки поют

MVO

Властелин колец

1 сезон

GLOBAL

pack

Рекомендуем

30

Пиратка

ВАЖНО

ВАЖНО

Ghostwire

Пиратка

jed

RePack

nioh2

RePack

RDR2

RePack

NEED FOR SPEED™ PAYBACK

RePack

скачать торрент

Кинопоиск HD

Острые козырьки 6 сезон

6 сезон

FAR CRY 6

RePack

скачать торрент

Лицензия

скачать торрент

MVO

1

1 сезон

скачать торрент

1 сезон

скачать торрент

Лицензия

  

Андор / Andor / Сезон: 1 / Серии: 1-12 из 12 (Бенджамин Карон, Тоби Хэйнс, Сюзанна Уайт) [2022, Фантастика, боевик, триллер, драма, приключения, WEB-DL 1080p] Дубляж [Red Head Sound]

Андор через торрент pb.wtf

Раздают: 11 [ 3 MB/s ] Качают: 8 [ 0 KB/s ]
Размер: 22.55 GB | Добавлен: 3 д. назад | Торрент скачан:72 раза
Смотреть онлайн | Скачать   

29-09-2022 12:16 Андор Скачать торрент  

Андор | Andor
«---»

Год выпуска: 2022
Страна: США
Выпущено: Lucasfilm
Жанр: Фантастика, боевик, триллер, драма, приключения
Продолжительность: ~ 00:40:00
Перевод: Дублированный | Red Head Sound
Субтитры: отсутствуют

Режиссер: Бенджамин Карон, Тоби Хэйнс, Сюзанна Уайт

rating

В ролях: Диего Луна, Женевьев О`Рейли, Алекс Фернс, Уилф Сколдинг, Нуф Макьюэн, Адриа Архона, Клеменс Шик, Энтон Саундерс, Дениз Гоф, Александр Боуман

Описание: Действие происходит за пять лет до событий фильма «Изгой-один» и рассказывает о группе персонажей в период формирования Повстанческого альянса в целях борьбы против Галактической Империи. Один из таких персонажей — Кассиан Андор, вор, который становится революционером и в итоге присоединяется к сопротивлению.

Качество: WEB-DL 1080p
Формат: MKV

Видео: MPEG-4 AVC, 1920х1080, ~6092 Кбит/с, 24.000 кадр/с
Аудио: 48.0 kHz, AC3 Dolby Digital, 2/0 (L,R) ch, ~ 256 kbps

Общее
Уникальный идентификатор : 213348739156866892906446668879425814423 (0xA08178F7FC194712BB203E5391CDBF97)
Полное имя : D:Андор_1_сезон_Red_Head_Sound_[scarfilm.org]\Star.Wars.Andor.S01E01_RHS_[scarfilm.org].mkv
Формат : Matroska
Версия формата : Version 4
Размер файла : 1,71 Гбайт
Продолжительность : 39 м. 10 с.
Режим общего битрейта : Переменный
Общий поток : 6 243 Кбит/сек
Дата кодирования : UTC 2022-09-26 21:30:43
Программа кодирования : mkvmerge v6.1.0 ('Old Devil') built on Mar 4 2013 09:10:42
Библиотека кодирования : libebml v1.3.0 + libmatroska v1.4.0

Видео
Идентификатор : 1
Формат : AVC
Формат/Информация : Advanced Video Codec
Профиль формата : [email protected]
Настройки формата : CABAC / 4 Ref Frames
Параметр CABAC формата : Да
Параметр RefFrames формата : 4 кадра
Идентификатор кодека : V_MPEG4/ISO/AVC
Продолжительность : 39 м. 10 с.
Вид битрейта : Переменный
Битрейт : 6 092 Кбит/сек
Максимальный битрейт : 12,7 Мбит/сек
Ширина : 1 920 пикселей
Высота : 1 080 пикселей
Соотношение сторон : 16:9
Режим частоты кадров : Постоянный
Частота кадров : 24,000 кадра/сек
Цветовое пространство : YUV
Субдискретизация насыщенности : 4:2:0
Битовая глубина : 8 бит
Тип развёртки : Прогрессивная
Бит/(Пиксели*Кадры) : 0.118
Размер потока : 1,60 Гбайт (94%)
Default : Да
Forced : Нет
Цветовой диапазон : Limited
Основные цвета : BT.709
Характеристики трансфера : BT.709
Коэффициенты матрицы : BT.709

Аудио
Идентификатор : 2
Формат : AC-3
Формат/Информация : Audio Coding 3
Коммерческое название : Dolby Digital
Идентификатор кодека : A_AC3
Продолжительность : 39 м. 10 с.
Вид битрейта : Постоянный
Битрейт : 256 Кбит/сек
Каналы : 2 канала
Channel layout : L R
Частота : 48,0 КГц
Частота кадров : 31,250 кадров/сек (1536 SPF)
Метод сжатия : С потерями
Размер потока : 71,7 Мбайт (4%)
Заголовок : Дубляж - Red Head Sound
Язык : Russian
Service kind : Complete Main
Default : Да
Forced : Нет

Когда раздача ведётся путём добавления новых серий, при каждом добавлении создётся новый торрент. Чтобы начать докачку новой серии, пользователям необходимо сделать следующее:
(1) остановить скачивание,
(2) удалить старый торрент у себя из клиента (старые серии удалять не надо),
(3) скачать новый торрент и запустить его у себя в клиенте вместо старого, при этом указать клиенту путь в старую папку, куда и должно происходить скачивание новых серий.
Ваш клиент при этом должен произвести хеширование (проверку) старой папки (если не производит сам - помогите ему сделать это), и будет докачивать только те серии, которых у вас ещё нет. Старые серии при этом не удаляются, а продолжают раздаваться!
Eсли вы уже удалили старые серии, то предотвратить повторную закачку старых серий можно, отжав галочку в соответсвующих местах при запуске нового торрента. По возможности, желательно не удалять старые серии как можно дольше, чтобы релизёр не столько продолжал раздавать старые серии, а смог сконцентрироваться на новых.




Скачать Андор через торрент https://i4-imageban-ru.translate.goog/out/2022/09/24/e01a9e16121eea1aa867f036ec176fae.png Скачать, смотреть онлайн Андор бесплантно в хорошем качестве Описание: Действие происходит за пять лет до событий фильма «Изгой-один» и рассказывает о группе персонажей в период формирования ... 6.2 10 24
Info! Золотая раздача, скачанное не засчитывается.
Торрент: Зарегистрирован [2022-11-26 12:52] · скачан: 72 раз
Статус: √ проверено
Размер: 22.55 GB
Как cкачать? Как скачать Андор через торрент | UTorrent

% Раздел Тема Автор DL S | L
Зарубежные сериалы [ 14.2 GB ] Андор / Andor / Сезон: 1 / Серии: 1-12 из 12 | DUB | 720p bober100 Скачать
5 | 3
Зарубежные сериалы [ 6.72 GB ] Андор / Andor / Сезон: 1 / Серии: 1-12 из 12 + Спецвыпуск | HDRezka Studio | DLRip bober100 Скачать
18 | 3
Зарубежные сериалы [ 29.91 GB ] Андор / Andor / Сезон: 1 / Серии: 1-12 из 12 | MVO | 1080p bober100 Скачать
6 | 8
Зарубежные сериалы [ 10.73 GB ] Андор / Andor / Сезон: 1 / Серии: 1-7 из 12 | TVShows | 1080p killermax2013 Скачать
1 | 3
Зарубежные сериалы [ 6.67 GB ] Андор / Andor / Сезон: 1 / Серии: 1-12 из 12 | DUB | DLRip bober100 Скачать
5 | 5
Зарубежные сериалы [ 8.14 GB ] Андор / Andor / Сезон: 1 / Серии: 0-12 из 12 | LostFilm | DLRip bober100 Скачать
7 | 4
Зарубежные сериалы [ 277 MB ] Андор / Andor / Сезон: 1 / Серии: 0- из 12 | HDRezka Studio | 720p bober100 Скачать
1 | 0



Последний раз редактировалось: bober100 (2022-11-26 12:51), всего редактировалось 6 раз(а)

28-11-2019 20:33  


Отключить вcю реклaмy на сайте, в т.ч. и в плеере онлайн просмотра!

24-10-2022 20:49 Андор Скачать торрент  

Сериал очень зашел. Декорации, костюмы, гримм всё смотрится таким живым!
Повествование очень круто подано, первые серии сперва тяжело заходили но зато потом...



    Дорогой пользователь! Огромная просьба, поблагодарите релизера, оцените раздачу и оставьте свои комментарий, если Вы скачали Андор через торрент бесплатно!!
    Комментировать посты могут только пользователи прошедшие не сложную регистрацию
    Показать сообщения:    


    Андор через торрент
    Скачать бесплатно Андор
    Андор скачать торрент
    Андор смотреть онлайн
    Cкачать фильм Андор бесплатно
    Андор скачать торрент в хорошем качестве
    Андор смотреть онлайн бесплатно в хорошем качестве
    Вы не можете начинать темы
    Вы не можете отвечать на сообщения
    Вы не можете редактировать свои сообщения
    Вы не можете удалять свои сообщения
    Вы не можете голосовать в опросах
    Вы не можете прикреплять файлы к сообщениям
    Вы можете скачивать файлы
    Андор / Andor / Сезон: 1 / Серии: 1-12 из 12 [2022, Фантастика, боевик, триллер, драма, приключения, WEB-DL 1080p] Дубляж [Red Head Sound] смотреть онлайн, скачать торрент picoco.icu