Доктор Стрэндж

Лицензия

Добыча

Дубляж

Дом дракона

1 сезон

Тор

Дубляж

В эфире

Дубляж

Там, где раки поют

MVO

Властелин колец

1 сезон

GLOBAL

pack

Рекомендуем

30

Пиратка

ВАЖНО

ВАЖНО

Ghostwire

Пиратка

jed

RePack

nioh2

RePack

RDR2

RePack

NEED FOR SPEED™ PAYBACK

RePack

скачать торрент

Кинопоиск HD

Острые козырьки 6 сезон

6 сезон

FAR CRY 6

RePack

скачать торрент

Лицензия

скачать торрент

MVO

1

1 сезон

скачать торрент

1 сезон

скачать торрент

Лицензия

  

Поминки / The Wake (Фаузи Брахими, Брайан Брюэр) [2017 г., ужасы, WEB-DLRip, "OKKO"]

Поминки через торрент pb.wtf

Раздают: 1 [ 0 KB/s ]
Размер: 719 MB | Добавлен: 2 мес. назад | Торрент скачан:18 раз
Смотреть онлайн | Скачать   

29-09-2022 17:18 Поминки Скачать торрент  

Поминки / The Wake
Год выпуска: 2017
Страна: США / Lesson 1 Entertainment
Жанр: ужасы
Продолжительность: 01:26:21
Перевод: Профессиональный многоголосый закадровый (OKKO)

Режиссер: Фаузи Брахими, Брайан Брюэр

rating

В ролях: Брайан Брюэр, Элли Ривера, Дарла Делгадо, Майкл Аарон Миллиган, Кристен Далтон, Аманда Муссо, Фаузи Брахими, Harper Lay, Джейкоб Ульрих, Brad Hartmaier

Описание: Группа друзей приезжает на поминки ребёнка, которого они случайно сбили на машине. Приехав на место, молодые люди оказываются в ловушке человека в маске.

Качество: WEB-DLRip
Формат: AVI
Видео кодек: DivX
Аудио кодек: MP3
Видео: MPEG4, DivX 4, 640x360 (16:9), 23.976 fps, 1 027 kb/s (0.186 bit/pixel)
Аудио: MP3, 48.0 kHz, 2 ch, 128 kb/s, CBR

General
Complete name : G:\ФИЛЬМЫ\Поминки.2017.WEB-DLRip.avi
Format : AVI
Format/Info : Audio Video Interleave
File size : 719 MiB
Duration : 1 h 26 min
Overall bit rate : 1 164 kb/s
Writing application : VirtualDubMod 1.5.10.3 | www.virtualdub-fr.org || (build 2550/release)
Writing library : VirtualDubMod build 2550/release

Video
ID : 0
Format : MPEG-4 Visual
Format profile : Advanced [email protected]
Format settings : BVOP2
Format settings, BVOP : 2
Format settings, QPel : No
Format settings, GMC : No warppoints
Format settings, Matrix : Default (MPEG)
Codec ID : DIVX
Codec ID/Info : Project Mayo
Codec ID/Hint : DivX 4
Duration : 1 h 26 min
Bit rate : 1 027 kb/s
Width : 640 pixels
Height : 360 pixels
Display aspect ratio : 16:9
Frame rate : 23.976 (24000/1001) FPS
Color space : YUV
Chroma subsampling : 4:2:0
Bit depth : 8 bits
Scan type : Progressive
Compression mode : Lossy
Bits/(Pixel*Frame) : 0.186
Stream size : 634 MiB (88%)
Writing library : XviD 1.2.1 (UTC 2008-12-04)

Audio
ID : 1
Format : MPEG Audio
Format version : Version 1
Format profile : Layer 3
Format settings : Joint stereo
Codec ID : 55
Codec ID/Hint : MP3
Duration : 1 h 26 min
Bit rate mode : Constant
Bit rate : 128 kb/s
Channel(s) : 2 channels
Sampling rate : 48.0 kHz
Frame rate : 41.667 FPS (1152 SPF)
Compression mode : Lossy
Stream size : 79.1 MiB (11%)
Alignment : Aligned on interleaves
Interleave, duration : 42 ms (1.00 video frame)
Interleave, preload duration : 504 ms
Writing library : LAME3.99r
Encoding settings : -m j -V 4 -q 2 -lowpass 17 -b 128




Скачать Поминки через торрент https://i120.fastpic.org/big/2022/0929/e7/da2926a364d2d4d987acc3ee193b67e7.jpg Скачать, смотреть онлайн Поминки бесплантно в хорошем качестве Описание: Группа друзей приезжает на поминки ребёнка, которого они случайно сбили на машине. Приехав на место, молодые люди оказываются в ... 10 10 3
Торрент: Зарегистрирован [2022-09-29 17:18] · скачан: 18 раз
Статус: √ проверено
Размер: 719 MB
Как cкачать? Как скачать Поминки через торрент | UTorrent

% Раздел Тема Автор DL S | L
Фильмы 2017 [DVDrip, WEB-DLRip, HDrip] (DUB, MVO) [ 1.46 GB ] Поминки / The Wake | OKKO | DLRip bober100 Скачать
2 | 0

28-11-2019 20:33  


Отключить вcю реклaмy на сайте, в т.ч. и в плеере онлайн просмотра!

    Дорогой пользователь! Огромная просьба, поблагодарите релизера, оцените раздачу и оставьте свои комментарий, если Вы скачали Поминки через торрент бесплатно!!
    Комментировать посты могут только пользователи прошедшие не сложную регистрацию
    Показать сообщения:    


    Поминки через торрент
    Скачать бесплатно Поминки
    Поминки скачать торрент
    Поминки смотреть онлайн
    Cкачать фильм Поминки бесплатно
    Поминки скачать торрент в хорошем качестве
    Поминки смотреть онлайн бесплатно в хорошем качестве
    Вы не можете начинать темы
    Вы не можете отвечать на сообщения
    Вы не можете редактировать свои сообщения
    Вы не можете удалять свои сообщения
    Вы не можете голосовать в опросах
    Вы не можете прикреплять файлы к сообщениям
    Вы можете скачивать файлы
    Поминки / The Wake [2017 г., ужасы, WEB-DLRip, "OKKO"] смотреть онлайн, скачать торрент picoco.icu